<?xml version="1.0" standalone="no"?>
<!DOCTYPE svg PUBLIC "-//W3C//DTD SVG 1.1//EN" "http://www.w3.org/Graphics/SVG/1.1/DTD/svg11.dtd" >
<svg xmlns="http://www.w3.org/2000/svg">
<metadata></metadata>
<defs>
<font id="mograregular" horiz-adv-x="1433" >
<font-face units-per-em="2048" ascent="1536" descent="-512" />
<missing-glyph horiz-adv-x="557" />
<glyph horiz-adv-x="0" />
<glyph horiz-adv-x="682" />
<glyph unicode=" "  horiz-adv-x="557" />
<glyph unicode="&#x09;" horiz-adv-x="557" />
<glyph unicode="&#xa0;" horiz-adv-x="557" />
<glyph unicode="!" horiz-adv-x="686" d="M80 223q0 35 48 74t115.5 65.5t121.5 26.5q35 0 69.5 -36t56 -86t21.5 -85q0 -37 -48 -80t-112.5 -72.5t-109.5 -29.5q-35 0 -73 38t-63.5 91t-25.5 94zM213 684q-2 68 36 328t91 473t102 213t107.5 -32t99.5 -78t41 -83q0 -31 -47 -157q-25 -70 -51.5 -152t-40.5 -154 q-23 -104 -39 -272q-12 -117 -25.5 -173t-37.5 -67q-9 -4 -29 -4q-41 0 -89 27t-83 64.5t-35 66.5z" />
<glyph unicode="&#x22;" horiz-adv-x="991" d="M131 942q23 164 45 475q65 35 139 35q61 0 111.5 -24.5t75.5 -69.5q-23 -96 -73 -234.5t-93 -228.5q-39 -14 -74 -14q-41 0 -75.5 15t-55.5 46zM623 942q23 164 45 475q65 35 139 35q61 0 111.5 -24.5t74.5 -69.5q-23 -96 -73 -234.5t-93 -228.5q-39 -14 -73 -14 q-41 0 -76 15t-55 46z" />
<glyph unicode="#" horiz-adv-x="1570" d="M6 381q0 82 62 137l262 6l94 316l-227 -19q-41 20 -64.5 60.5t-23.5 87.5q0 82 61 137l309 10q41 180 66.5 252t66.5 72t97.5 -33t98.5 -76t42 -74q0 -37 -23 -116l217 20q33 150 58.5 214.5t64.5 64.5q41 0 97.5 -33t98.5 -76t42 -74q0 -23 -10 -69l129 10 q39 -22 58.5 -60t19.5 -83q0 -41 -16.5 -79t-43.5 -65l-244 -10l-90 -319l211 22q39 -23 58.5 -60.5t19.5 -82.5q0 -41 -16.5 -79t-42.5 -65l-295 -12q-41 -162 -68.5 -235.5t-56.5 -73.5q-45 0 -105.5 24.5t-103.5 61.5t-45 70q0 29 31 127l-220 -19q-35 -135 -60.5 -199.5 t-53.5 -64.5q-45 0 -102.5 24.5t-99.5 61.5t-44 70q0 23 18 92l-139 -11q-41 20 -64.5 60.5t-23.5 87.5zM635 522l260 23l102 352l-262 -20z" />
<glyph unicode="$" horiz-adv-x="1011" d="M-43 264q-4 90 59.5 146.5t169.5 56.5q53 0 109 -14q25 -135 43 -195q90 23 159.5 51.5t127.5 73.5q-184 127 -333 282.5t-149 280.5q0 74 46.5 164t128 173t186.5 132q10 131 29.5 199.5t62.5 68.5t101.5 -30.5t101.5 -73.5t43 -74q0 -41 -19 -123q86 -55 141.5 -144 t55.5 -171q0 -76 -58.5 -124t-144.5 -48q-63 0 -131 31q12 66 12 116q0 61 -13 99.5t-34 38.5q-33 0 -76 -38t-72.5 -94.5t-29.5 -109.5q0 -80 66.5 -145.5t195.5 -155.5q111 -78 166 -130t55 -108q0 -119 -109.5 -215t-285.5 -149q-35 -233 -82 -234q-55 0 -116.5 21.5 t-103.5 56.5t-42 72q0 25 16 80q-106 35 -190 106.5t-86 126.5z" />
<glyph unicode="%" horiz-adv-x="1728" d="M164 922q0 154 78 286q45 27 98 23q-4 16 -4 24q0 39 31.5 70t87.5 45q92 -8 168.5 -49t120.5 -97.5t44 -111.5q0 -82 -48 -176t-133 -157.5t-191 -63.5q-51 0 -110.5 33.5t-100.5 83t-41 90.5zM373 66q0 31 33.5 94t119.5 209q133 217 201 350q84 162 193 391 q109 227 165 330.5t89 103.5q37 0 79.5 -39t72.5 -91t30 -81q0 -37 -45 -126t-146 -269q-141 -256 -176 -322q-68 -131 -121 -237q-127 -252 -194.5 -368.5t-100.5 -116.5t-81 31.5t-83.5 73.5t-35.5 67zM387 913q0 -27 2 -39q158 63 195 263q-53 29 -135 28q6 -18 6 -41 q-33 -43 -50.5 -98t-17.5 -113zM963 207q0 154 77 287q45 27 99 22q-4 16 -4 25q0 39 31.5 69.5t86.5 44.5q92 -8 169 -49t121 -97t44 -112q0 -82 -48 -176t-133 -157.5t-192 -63.5q-51 0 -110.5 34t-100 83t-40.5 90zM1186 199q0 -27 2 -39q158 63 194 262q-53 29 -135 29 q6 -18 6 -41q-32 -43 -49.5 -98.5t-17.5 -112.5z" />
<glyph unicode="&#x26;" horiz-adv-x="1597" d="M33 313q0 86 154.5 211t334.5 224q-121 37 -207 108.5t-86 142.5q0 66 92.5 163.5t223.5 176t237 95.5q78 -10 119 -51.5t41 -100.5q0 -55 -37 -115q-119 -31 -200.5 -82t-155.5 -135q72 -63 239 -63q100 0 195 22q23 158 41 234t49 76q53 0 105.5 -28t85 -64.5 t30.5 -65.5q-6 -68 -39 -133l187 -10q33 -4 50 -30t17 -63t-17 -74.5t-50 -66.5l-256 -2q-41 -164 -76 -381q133 63 221 131q84 -31 123 -80t39 -123q0 -47 -72.5 -101t-172 -91t-173.5 -37q-59 0 -121.5 46t-93.5 112q-236 -158 -471 -158q-72 0 -155.5 55.5t-142 131 t-58.5 126.5zM348 268q227 0 394 100.5t184 309.5q-184 -27 -341 -147.5t-237 -262.5z" />
<glyph unicode="'" horiz-adv-x="520" d="M131 942q23 164 45 475q65 35 139 35q61 0 111.5 -24.5t75.5 -69.5q-23 -96 -73 -234.5t-93 -228.5q-39 -14 -74 -14q-41 0 -75.5 15t-55.5 46z" />
<glyph unicode="(" horiz-adv-x="841" d="M90 473q0 160 80 383t214 440t288 357q121 6 190.5 -61.5t63.5 -174.5q-236 -195 -381.5 -444.5t-204.5 -521.5q41 -182 122 -287t240 -201q2 -12 3 -35q0 -78 -50.5 -133t-130.5 -55q-111 0 -211 115.5t-161.5 287.5t-61.5 330z" />
<glyph unicode=")" horiz-adv-x="770" d="M-76 -47q223 209 354.5 467t176.5 532q-53 180 -137.5 282.5t-245.5 188.5q-6 25 -6 50q0 74 45 127t120 53q115 0 225.5 -118t180.5 -293t70 -333q0 -164 -70 -385t-187.5 -434t-256.5 -356q-12 -2 -37 -2q-104 0 -168 62.5t-64 158.5z" />
<glyph unicode="*" horiz-adv-x="897" d="M197 1280q0 29 14 55.5t41 38.5l248 -59l-217 135q-6 16 -7 31q0 41 32 71.5t75 30.5q16 0 35 -6l123 -227l-43 247q14 25 36.5 37.5t47.5 12.5q33 0 59.5 -17.5t40.5 -48.5l-88 -235l149 215q18 6 37 6q39 0 65.5 -29t26.5 -68q0 -18 -10 -43l-239 -118l247 63 q29 -12 43.5 -36.5t14.5 -53.5t-14.5 -55.5t-41.5 -38.5l-254 76l228 -131q4 -20 4 -29q0 -43 -32 -74t-73 -31q-16 0 -32 7l-131 225l63 -260q-14 -25 -36.5 -37t-47.5 -12q-33 0 -59.5 17t-40.5 48l69 244l-141 -234q-20 -4 -31 -4q-45 0 -75.5 29t-30.5 70q0 8 4 24 l238 148l-240 -74q-29 12 -43 36.5t-14 53.5z" />
<glyph unicode="+" horiz-adv-x="919" d="M35 676q0 84 67 143q104 -8 252 -12l13 274q57 55 131 56q51 0 92 -26t59 -71q-20 -135 -45 -225q135 6 236 25q34 -23 52.5 -59t18.5 -76q0 -43 -17 -83t-46 -69q-90 8 -273 12q-8 -113 -8 -248q-27 -25 -63.5 -38t-73.5 -13q-49 0 -89 21.5t-60 62.5q23 90 43 209 l-91 -10q-78 -8 -118 -14q-37 20 -58.5 58t-21.5 83z" />
<glyph unicode="," horiz-adv-x="686" d="M39 221q0 35 41 71t102.5 59.5t118.5 23.5q84 0 138.5 -80t54.5 -195q0 -109 -62.5 -212t-187.5 -167q-111 2 -107 117q94 66 182 178l-18 23q-55 -35 -108 -35q-39 0 -74 39t-57.5 91t-22.5 87z" />
<glyph unicode="-" horiz-adv-x="950" d="M76 678q0 82 61 137q123 0 246 6t244 17q35 2 157 10q39 -23 58.5 -60.5t19.5 -82.5q0 -41 -16.5 -79t-42.5 -65q-250 -4 -639 -31q-41 21 -64.5 61t-23.5 87z" />
<glyph unicode="." horiz-adv-x="645" d="M39 223q0 35 48 74t115.5 65.5t121.5 26.5q35 0 69.5 -36t56 -86t21.5 -85q0 -37 -48 -80t-112.5 -72.5t-109.5 -29.5q-35 0 -73 38t-63.5 91t-25.5 94z" />
<glyph unicode="/" horiz-adv-x="778" d="M39 -20q0 29 28.5 123t65.5 210q104 328 135 441q25 88 88 348q55 238 91 344t77 106t96.5 -34.5t96.5 -80.5t41 -79q0 -37 -22.5 -119t-73.5 -246q-66 -207 -111 -366l-84 -314q-68 -264 -105.5 -381.5t-72.5 -117.5q-45 0 -104.5 26.5t-102.5 65.5t-43 74z" />
<glyph unicode="0" horiz-adv-x="1122" d="M123 594q0 180 39 353t109.5 290t162.5 131q43 6 88 6q145 0 290.5 -67.5t238 -166t92.5 -179.5q0 -233 -97.5 -456.5t-261 -364t-348.5 -140.5q-155 0 -234 170t-79 424zM416 543q0 -150 30 -291q175 74 285.5 272.5t132.5 427.5q-49 55 -123.5 84t-199.5 51 q-125 -242 -125 -544z" />
<glyph unicode="1" horiz-adv-x="804" d="M74 1051q0 39 97 114.5t214 139t164 63.5t110.5 -35t108.5 -85t45 -91q0 -47 -51 -229q-57 -209 -76 -318q-16 -88 -39 -305q-16 -162 -30.5 -233.5t-41.5 -71.5q-51 0 -116.5 30.5t-112.5 73.5t-47 76q0 43 29.5 196.5t76 324.5t99.5 282l-33 23l-45 -43 q-61 -61 -102 -95t-66 -34q-31 0 -75 37.5t-76.5 89t-32.5 90.5z" />
<glyph unicode="2" horiz-adv-x="1112" d="M33 311q0 45 62.5 101.5t195.5 150.5q141 102 228 174t164 164t103 193q-113 -10 -214 -57.5t-203 -127.5q-80 16 -126 67.5t-46 113.5q0 74 76.5 138t200.5 102t257 38q74 0 150.5 -49t127 -119t50.5 -125q0 -197 -210 -407.5t-517 -393.5l16 -26q92 18 258 59 q262 63 316 64q59 0 89.5 -43t30.5 -109q0 -68 -28 -119l-60 -10q-227 -41 -387.5 -65.5t-267.5 -24.5q-57 0 -119.5 53t-104.5 128t-42 130z" />
<glyph unicode="3" horiz-adv-x="1146" d="M20 231q0 68 69 112t185 44q49 0 76 -4q20 -98 64 -184q139 37 224 99t136 175q-61 18 -133 19q-53 0 -127 -13q-14 -2 -30.5 -4t-32.5 -2q-20 0 -29 4q-45 23 -81 82t-36 119q0 31 37 53.5t119 56.5q141 57 236.5 123t140.5 183q-115 -10 -217.5 -57.5t-204.5 -127.5 q-80 16 -126 67.5t-46 113.5q0 74 76.5 138t200.5 102t257 38q74 0 151 -49t127 -119t50 -125q0 -119 -117 -223t-323 -170l8 -23q115 4 212 -26.5t154.5 -79.5t57.5 -92q0 -113 -103.5 -220.5t-261.5 -174t-307 -66.5q-92 0 -187.5 36t-157 90t-61.5 105z" />
<glyph unicode="4" horiz-adv-x="1122" d="M86 621q0 61 120 248.5t263 343t223 155.5q100 0 149.5 -63.5t41.5 -163.5q-166 -115 -287 -244t-250 -315q199 0 381 24q6 20 11 54t7 49q10 72 20.5 111.5t29.5 39.5q39 0 98 -26.5t104 -63.5t45 -70q0 -63 -26.5 -240t-64.5 -318.5t-72 -141.5q-39 0 -96.5 30.5 t-101.5 70.5t-44 67q0 29 22 111l21 81q-63 -12 -147 -23t-152 -11q-66 0 -102 12q-41 14 -86.5 64.5t-76 110.5t-30.5 108z" />
<glyph unicode="5" horiz-adv-x="1105" d="M29 268q0 78 59 135.5t158 57.5q45 0 104 -17q23 -131 68 -208q109 43 192.5 110.5t108.5 147.5q-41 25 -133 65q-111 49 -189 91t-137 91q-31 25 -46 71t-15 93q0 43 26.5 148.5t67.5 189.5t84 84q365 0 645 41q39 -23 58.5 -62.5t19.5 -86.5q0 -41 -16.5 -82t-43.5 -68 q-293 -4 -499 -22q-45 -96 -45 -164q0 -29 50 -58.5t163 -79.5q168 -74 260 -134t92 -138q0 -98 -101.5 -209.5t-250 -187.5t-273.5 -76q-90 0 -186 43t-158.5 106.5t-62.5 118.5z" />
<glyph unicode="6" horiz-adv-x="1114" d="M76 451q0 154 72.5 332t203.5 334.5t297 250.5q104 0 158.5 -47t54.5 -135q0 -31 -6 -68q-137 -80 -245.5 -177t-223.5 -239l23 -20q88 59 163.5 86t157.5 27q78 0 154 -58.5t125 -147.5t49 -169q0 -92 -77 -190.5t-198.5 -164t-251.5 -65.5q-135 0 -239.5 65.5 t-160.5 170t-56 215.5zM350 324q59 -45 150 -45q70 0 136 27.5t111.5 78.5t51.5 119q-59 28 -133 28q-106 0 -196.5 -59t-119.5 -149z" />
<glyph unicode="7" horiz-adv-x="1005" d="M111 1249q0 39 10 69t33 38q18 8 77 8q61 0 136 -6q29 -2 69.5 -4t93.5 -2q104 0 215 12q53 6 82 6q16 0 23 -2q41 -8 82 -55t68.5 -105.5t27.5 -97.5t-37 -112.5t-117 -217.5q-80 -137 -118 -217q-41 -86 -127 -289q-57 -143 -93 -208.5t-73 -65.5q-39 0 -94.5 41 t-96.5 94t-41 86q0 20 68 134t227 378q172 276 215 352q-81 3 -288 -22q-152 -18 -215 -19q-37 0 -52 7q-31 10 -53 72.5t-22 125.5z" />
<glyph unicode="8" horiz-adv-x="1210" d="M66 283q0 90 100 201.5t283 213.5q-23 14 -152 111l-119 88q-20 14 -31.5 51t-11.5 80q0 76 27 125q25 51 136.5 101.5t274 82t330.5 31.5q66 0 137.5 -46t119.5 -111.5t48 -118.5q0 -82 -123.5 -201t-271.5 -209q133 -70 218 -136.5t85 -119.5q0 -96 -107.5 -195.5 t-276.5 -165t-343 -65.5q-61 0 -138 50t-131 118t-54 115zM354 219q317 43 451 207q-23 35 -60.5 76t-76.5 71q-215 -170 -314 -354zM395 981q143 -104 236 -180q82 53 159.5 145t122.5 195q-168 -31 -286.5 -66t-231.5 -94z" />
<glyph unicode="9" horiz-adv-x="1116" d="M104 836q0 123 82 247.5t216.5 204.5t279.5 80q121 0 217 -61.5t150.5 -159.5t54.5 -205q0 -152 -92 -336t-246 -348t-328 -258q-94 -2 -153.5 45t-59.5 123q0 39 19 82q174 98 267 172t234 221l-30 31q-175 -115 -320 -115q-72 0 -138.5 46t-109.5 111.5t-43 119.5z M356 797q41 -6 80 -6q96 0 187.5 35.5t155 108.5t73.5 181q-35 6 -66 6q-145 0 -259.5 -85t-170.5 -240z" />
<glyph unicode=":" horiz-adv-x="667" d="M61 223q0 35 48.5 74t116 65.5t120.5 26.5q35 0 70 -36t56.5 -86t21.5 -85q0 -37 -48.5 -80t-113 -72.5t-109.5 -29.5q-35 0 -72.5 38t-63.5 91t-26 94zM158 934q0 35 48 74t115.5 65.5t120.5 26.5q35 0 70 -36t56.5 -86t21.5 -85q0 -37 -48 -80t-112.5 -72.5 t-110.5 -29.5q-34 0 -72 37.5t-63.5 91t-25.5 94.5z" />
<glyph unicode=";" horiz-adv-x="667" d="M61 221q0 35 41 71t102.5 59.5t119.5 23.5q84 0 138 -80t54 -195q0 -109 -62.5 -212t-187.5 -167q-111 2 -106 117q94 66 182 178l-18 23q-56 -35 -109 -35q-39 0 -74 39t-57.5 91t-22.5 87zM158 934q0 35 48 74t115.5 65.5t120.5 26.5q35 0 70 -36t56.5 -86t21.5 -85 q0 -37 -48 -80t-112.5 -72.5t-110.5 -29.5q-34 0 -72 37.5t-63.5 91t-25.5 94.5z" />
<glyph unicode="&#x3c;" horiz-adv-x="946" d="M55 680q0 76 41 129l676 434q82 -14 128 -64.5t46 -115.5q0 -47 -28 -98l-625 -289l534 -242q31 -49 31 -96q0 -70 -56.5 -118t-142.5 -48l-600 469q-4 25 -4 39z" />
<glyph unicode="=" horiz-adv-x="942" d="M31 406q0 82 61 137q309 2 719 32q39 -23 58.5 -60.5t19.5 -82.5q0 -41 -16.5 -79t-43.5 -64q-348 -6 -710 -31q-41 21 -64.5 60.5t-23.5 87.5zM57 813q0 82 62 137q309 2 719 33q39 -23 58 -60.5t19 -82.5q0 -41 -16 -79t-43 -65q-348 -6 -711 -30q-41 20 -64.5 60 t-23.5 87z" />
<glyph unicode="&#x3e;" horiz-adv-x="966" d="M63 354q0 45 19 90l606 258l-534 273q-33 47 -33 98q0 68 55 119t141 59l617 -463q10 -20 10 -55q0 -59 -29 -112l-661 -461q-88 8 -139.5 62t-51.5 132z" />
<glyph unicode="?" horiz-adv-x="1124" d="M225 1454q0 63 83 119.5t206 90.5t238 34q82 0 160.5 -47t129 -114t50.5 -118q0 -92 -46.5 -165.5t-112 -128t-171.5 -124.5q-106 -72 -162.5 -118.5t-79.5 -104.5q70 -2 118 13.5t130 54.5q37 -29 58.5 -72t21.5 -80q0 -72 -75 -119t-210 -47q-66 0 -132 51.5 t-110.5 125t-44.5 133.5q0 76 69 141t206 156q129 86 195.5 145t84.5 129q-33 4 -49 4q-100 0 -207.5 -44t-191.5 -101q-70 14 -114 67.5t-44 118.5zM287 223q0 35 48 74t115.5 65.5t120.5 26.5q35 0 70 -36t56.5 -86t21.5 -85q0 -37 -48 -80t-112.5 -72.5t-109.5 -29.5 q-35 0 -73 38t-63.5 91t-25.5 94z" />
<glyph unicode="@" horiz-adv-x="2127" d="M53 350q0 285 148.5 547t434.5 426t679 164q201 0 374 -100.5t276 -259t103 -318.5q0 -199 -87 -387.5t-228 -305t-297 -116.5q-43 0 -102.5 31.5t-103.5 72.5t-44 66q0 16 18.5 53t34 63.5t23.5 41.5l-47 24q-98 -158 -191.5 -255t-181.5 -97q-59 0 -126.5 51t-114 124 t-46.5 130q0 164 70 334t196 281.5t285 111.5q55 0 114.5 -49t76.5 -100q10 39 27.5 69.5t37.5 30.5q49 0 108.5 -34t101.5 -79t42 -69q-2 -37 -33.5 -131.5t-89.5 -247.5q-41 -106 -57 -154q156 59 244 191.5t88 292.5q0 119 -51.5 234.5t-153.5 209.5q-154 39 -301 39 q-270 0 -482 -121t-330 -320.5t-118 -426.5q4 -174 85 -321.5t245 -252.5q117 29 187.5 52.5t160.5 64.5q61 -25 105.5 -83t44.5 -118q0 -94 -100.5 -142t-291.5 -48q-186 0 -354 125t-272.5 319.5t-106.5 386.5zM872 254q154 94 266.5 228t155.5 296q-55 23 -96 23 q-133 0 -219 -161t-107 -386z" />
<glyph unicode="A" horiz-adv-x="1138" d="M-55 160l41 92q225 502 390 842t214 340q39 0 113.5 -29t135 -70t68.5 -73q14 -57 39 -239.5t39 -352.5l16 -160q2 -33 15.5 -165t13.5 -220q0 -115 -26 -123q-8 -2 -27 -2q-45 0 -111.5 21.5t-119 54.5t-60.5 63q-8 31 -8 258q-221 -27 -291 -32q-55 -162 -127 -355 q-55 -12 -102 -12q-82 0 -138.5 40t-74.5 122zM494 657q94 6 186 19q0 283 -8 438q-90 -213 -178 -457z" />
<glyph unicode="B" horiz-adv-x="1236" d="M111 252q0 39 88 450q66 307 86 424l-72 -10q-68 72 -68 162q0 66 37 125q178 41 301 41q186 0 346 -59.5t254.5 -158t94.5 -210.5q0 -113 -85 -212t-241 -151q139 -22 213 -90.5t74 -159.5q0 -100 -93.5 -196t-256 -156.5t-357.5 -60.5q-59 0 -136 47t-131 109.5 t-54 105.5zM414 238q186 12 279 69.5t93 141.5q0 47 -35.5 79.5t-109.5 40.5q-16 1 -32 1q-49 0 -105 -9l-12 -45q-53 -180 -78 -278zM518 752q176 24 269.5 88.5t93.5 150.5q0 59 -64.5 101.5t-169.5 42.5q-43 0 -67 -5q-14 -92 -21 -126q-20 -145 -41 -252z" />
<glyph unicode="C" horiz-adv-x="1120" d="M39 379q2 219 74.5 471t219 428t353.5 176q109 0 202 -61.5t146 -151.5t53 -170v-5q0 -80 -57 -123q-59 -44 -149 -44q-66 0 -131 25q2 37 2 104q0 76 -12.5 113t-47.5 37q-70 0 -142.5 -143.5t-122.5 -352.5t-54 -383q135 25 248.5 81t199.5 130q92 -23 142.5 -83 t50.5 -134q0 -45 -23 -94q-43 -43 -136 -92.5t-202.5 -83t-203.5 -33.5q-72 0 -170.5 66.5t-169 158.5t-70.5 164z" />
<glyph unicode="D" horiz-adv-x="1222" d="M61 264q0 35 41 195q41 166 68 299q10 51 45 180q4 18 20.5 74.5t24.5 103.5l-84 4q-33 66 -33 131q0 61 31 113.5t90 89.5q248 -20 459 -122.5t334 -257t123 -324.5q0 -150 -131 -330t-318.5 -305t-341.5 -125q-51 0 -130 51t-138.5 117.5t-59.5 105.5zM389 258 q205 107 341 260.5t136 288.5q0 80 -95 153.5t-218 98.5q-25 -125 -74 -359q-61 -291 -90 -442z" />
<glyph unicode="E" horiz-adv-x="1132" d="M131 207q0 31 47 237q35 152 68 316q23 113 22 112q33 160 43 232l-86 -6q-39 20 -62.5 60t-23.5 87q0 82 64 146q281 4 488.5 12t359.5 31q39 -23 58 -63t19 -87q0 -41 -16 -82t-43 -67q-264 -4 -440 -21q-35 -125 -66 -278q205 16 346 49q41 -25 62.5 -65t21.5 -87 q0 -43 -17.5 -81t-47.5 -60q-39 -4 -76 -6t-72 -4l-264 -19l-37 -184l-20 -98q125 12 226 33.5t214 60.5q57 -27 89 -75t32 -105q0 -82 -64 -146q-127 -25 -284.5 -37t-292.5 -12q-37 0 -96.5 37t-105.5 86t-46 84z" />
<glyph unicode="F" horiz-adv-x="1058" d="M133 199q0 31 21.5 135t48.5 225q92 397 108 545l-86 -6q-39 20 -62.5 60t-23.5 87q0 82 64 146q281 4 488.5 12t359.5 31q39 -23 58 -63t19 -87q0 -41 -16 -82t-43 -67q-233 -4 -440 -21q-10 -43 -43 -190q-4 -18 -27 -129q219 18 346 49q41 -25 62.5 -65t21.5 -87 q0 -43 -17.5 -81t-47.5 -60q-39 -4 -77 -6t-73 -4l-256 -19q-16 -104 -33 -248q-18 -154 -32.5 -214t-46.5 -60q-51 0 -116 36t-111 84t-46 79z" />
<glyph unicode="G" horiz-adv-x="1148" d="M33 420q14 219 100 460.5t237.5 407.5t348.5 166q104 0 187 -54t129 -141.5t46 -181.5q0 -70 -49 -110.5t-125 -40.5q-63 0 -137 30q4 49 4 66q0 78 -21.5 117t-60.5 39q-66 0 -149.5 -142.5t-146 -353.5t-70.5 -403q201 2 452 98l8 94q-41 -4 -67 -4q-63 0 -110.5 12.5 t-55.5 36.5q-8 18 -8 55q0 49 13 102.5t30 71.5q29 33 70.5 43.5t123.5 10.5q156 0 218.5 -68.5t62.5 -202.5q0 -100 -37 -271t-90 -300t-102 -129q-41 0 -91.5 18.5t-85 46t-34.5 50.5q2 33 23.5 78t45.5 79l-20 21q-60 -47 -154 -87t-147 -40q-63 0 -146.5 72.5 t-139.5 173.5q-52 95 -52 169v11z" />
<glyph unicode="H" horiz-adv-x="1267" d="M37 193v6q-1 36 19 132q22 105 28 136q8 41 30.5 150.5t37.5 203.5l16 97q39 229 72.5 372.5t68.5 143.5q39 0 105.5 -35t117 -82t50.5 -82q0 -18 -39 -164q-8 -33 -28.5 -110.5t-37.5 -145.5q190 14 369 39q4 29 8 45q37 227 72 381t71 154q39 0 105.5 -35t117 -82 t50.5 -82q0 -18 -39 -164q-72 -258 -107 -450q-20 -121 -43 -318q-20 -168 -35.5 -235.5t-48.5 -67.5q-47 0 -111.5 34t-112.5 81t-48 78v7q-1 30 13 102q16 80 36 179l19 88q-188 -29 -371 -41q-20 -137 -29 -229q-20 -166 -35.5 -232.5t-48.5 -66.5q-47 0 -111.5 34 t-112.5 81t-48 78z" />
<glyph unicode="I" horiz-adv-x="579" d="M37 193v6q-1 36 19 132q22 105 28 136q8 41 30.5 150.5t37.5 203.5l16 97q39 229 72.5 372.5t68.5 143.5q39 0 105.5 -35t117 -82t50.5 -82q0 -18 -39 -164q-72 -258 -107 -450q-20 -121 -43 -318q-20 -168 -35.5 -235.5t-48.5 -67.5q-47 0 -111.5 34t-112.5 81t-48 78z " />
<glyph unicode="J" horiz-adv-x="1024" d="M-16 424q0 96 64.5 152.5t148.5 56.5q76 0 125 -41q-2 -20 -3 -60q0 -74 14.5 -140t39 -105t49.5 -39q51 0 99 136t85 339q14 78 35 174q35 164 43 238q-90 -12 -145 -17q-23 -2 -94.5 -9t-129.5 -19q-45 20 -70.5 64t-25.5 97q0 70 41 125q121 31 265.5 44.5t260.5 13.5 q33 0 90.5 -37t102.5 -86t45 -78q-2 -53 -70 -326l-43 -184l-20 -105q-37 -186 -60.5 -290.5t-44.5 -139.5q-25 -43 -90 -87t-146 -72.5t-153 -28.5q-74 0 -173 62.5t-169.5 161t-70.5 200.5z" />
<glyph unicode="K" horiz-adv-x="1181" d="M37 193v6q-1 36 19 132q22 105 28 136q8 41 30.5 150.5t37.5 203.5l16 97q39 229 72.5 372.5t68.5 143.5q39 0 105.5 -35t117 -82t50.5 -82q0 -23 -37 -141.5t-70 -204.5q123 104 218 223t220 299h17q102 0 164 -46q66 -50 67 -138q0 -35 -8 -66q-270 -311 -606 -495 q115 -111 261 -205t282 -148q6 -33 6 -65q0 -96 -56.5 -165t-160.5 -83q-150 88 -256.5 203.5t-216.5 290.5q-18 -262 -37 -378t-60 -116q-47 0 -111.5 34t-112.5 81t-48 78z" />
<glyph unicode="L" horiz-adv-x="1019" d="M37 207q0 37 45 231q43 182 80 383l16 90q41 231 77 377t73 146q39 0 104.5 -35t115.5 -82t50 -82q0 -20 -21.5 -99t-25.5 -98q-68 -240 -107 -417q-27 -127 -79 -340q240 25 464 102q58 -27 89.5 -76t31.5 -106q0 -84 -63 -148q-127 -27 -272.5 -41t-262.5 -14 q-49 0 -71 2q-37 2 -95.5 39t-103.5 85t-45 83z" />
<glyph unicode="M" horiz-adv-x="1452" d="M37 193v6q-1 36 19 132q22 105 28 136q8 41 30.5 150.5t37.5 203.5l16 97q39 229 72.5 372.5t68.5 143.5t95.5 -29t113.5 -73t72 -83q33 -74 86 -315q37 -168 55 -232q88 133 225 408q88 174 134.5 249t83.5 75q39 0 105.5 -35t116.5 -82t50 -82q0 -29 -24.5 -161 t-30.5 -165l-54 -288q-20 -121 -43 -318q-20 -168 -35.5 -235.5t-48.5 -67.5q-47 0 -111.5 34t-112.5 81t-48 78v6q0 29 16 107q18 86 39 198q18 88 21 100l73 227l-28 11l-21 -41q-80 -164 -128 -255t-79 -130q-20 -25 -73 -40.5t-105 -15.5q-53 0 -71 19 q-18 16 -31.5 68.5t-36.5 162.5q-4 23 -22.5 110t-40.5 159l-15 -258q-20 -121 -43 -318q-20 -168 -35.5 -235.5t-48.5 -67.5q-47 0 -111.5 34t-112.5 81t-48 78z" />
<glyph unicode="N" horiz-adv-x="1267" d="M37 193v6q-1 36 19 132q22 105 28 136q8 41 30.5 150.5t37.5 203.5l16 97q39 229 72.5 372.5t68.5 143.5t95.5 -30t110.5 -73t65 -82q96 -258 235 -696l25 268l16 97q39 229 73 372.5t68 143.5q39 0 105.5 -35t117 -82t50.5 -82q0 -18 -39 -164q-72 -258 -107 -450 q-20 -121 -43 -318q-20 -168 -35.5 -235.5t-48.5 -67.5q-59 0 -138 50t-136 124q-31 41 -86 160t-107.5 267.5t-78.5 277.5l-15 -258q-20 -121 -43 -318q-20 -168 -35.5 -235.5t-48.5 -67.5q-47 0 -111.5 34t-112.5 81t-48 78z" />
<glyph unicode="O" horiz-adv-x="1169" d="M31 391q0 117 69.5 402.5t128.5 420.5q68 20 127 21q41 0 66 -8v13q0 68 37 126q41 64 116 88q150 0 284 -71.5t215 -189.5t81 -245q0 -199 -106.5 -425t-269.5 -379.5t-320 -153.5q-82 0 -183.5 68.5t-173 163.5t-71.5 169zM365 270q196 72 329 276t189 447 q-57 41 -148.5 67.5t-195.5 29.5q4 -20 8 -62q-182 -341 -182 -733v-25z" />
<glyph unicode="P" horiz-adv-x="1191" d="M106 195q0 53 101 542q12 57 39.5 195.5t38.5 200.5l-76 -13q-63 59 -64 150q0 63 35 131q166 43 336 43q180 0 335 -47t251 -144.5t96 -242.5q0 -129 -85 -245t-246.5 -191.5t-381.5 -92.5q-14 -98 -22 -178q-18 -156 -34.5 -229.5t-49.5 -73.5q-47 0 -111.5 35t-113 82 t-48.5 78zM516 735q178 35 275.5 107.5t97.5 163.5q0 61 -60.5 103t-162.5 42q-37 0 -80 -6l-33 -193q-29 -162 -37 -217z" />
<glyph unicode="Q" horiz-adv-x="1206" d="M39 381q-1 14 -1 30q0 118 50 371q57 287 111 432q49 14 83 18q24 4 58 4q14 0 31 -1q0 78 36.5 136.5t110.5 82.5h9q167 0 311 -76q147 -78 235 -199.5t90 -244.5v-16q0 -228 -111 -456q-114 -237 -356 -405l35 -88q137 29 336 150q163 -84 163 -217q0 -10 -1 -21 q-6 -57 -71.5 -110.5t-167 -87t-210.5 -33.5l-45 2q-94 6 -162.5 108.5t-105.5 239.5q-92 23 -190.5 88.5t-165 146t-72.5 146.5zM365 455h6q59 0 111 -40q55 -42 73 -106q139 135 223 322.5t101 361.5q-62 41 -152 67.5t-199 29.5q10 -27 13 -62q-141 -307 -176 -573z" />
<glyph unicode="R" horiz-adv-x="1239" d="M106 195q0 53 101 542q12 57 39.5 195.5t38.5 200.5l-76 -13q-63 59 -64 150q0 63 35 131q166 43 336 43q180 0 335 -47t251 -144.5t96 -242.5q0 -170 -133 -292t-391 -163q102 -96 205.5 -154.5t261.5 -111.5q8 -33 8 -72q0 -94 -57.5 -155.5t-169.5 -73.5 q-146 84 -258.5 209t-182.5 284l-8 -86q-20 -199 -39.5 -297t-54.5 -98q-47 0 -111.5 35t-113 82t-48.5 78zM520 754q162 16 265.5 85.5t103.5 166.5q0 61 -60.5 103t-162.5 42q-37 0 -80 -6q-33 -188 -31 -180q-18 -100 -35 -211z" />
<glyph unicode="S" horiz-adv-x="1011" d="M-43 264v11q-1 83 59 135q64 56 170 57q53 0 109 -14q25 -135 43 -195q121 31 262 107q-457 346 -457 540q0 94 70 226.5t184.5 227.5t241.5 95q94 0 182 -63.5t143.5 -155.5t55.5 -172q0 -78 -62.5 -124t-154.5 -46q-72 0 -144 31q17 102 17 163q0 43 -7 68t-18 25 q-31 0 -70.5 -51.5t-67.5 -122t-28 -125.5q0 -70 69 -140.5t202 -173.5q100 -74 149 -122t51 -87q2 -86 -90 -169t-230 -136t-257 -53q-92 0 -190.5 46t-164 108.5t-67.5 109.5z" />
<glyph unicode="T" horiz-adv-x="1161" d="M127 1229q0 82 63 145q117 16 292 21.5t208 7.5q215 6 314.5 11t169.5 20q38 -23 57.5 -63t19.5 -87q0 -41 -16 -82t-43 -67q-31 2 -92 2q-39 0 -142 -4l-108 -3l1 9q0 2 -50 -285l-41 -233q-20 -121 -43 -318q-20 -168 -35.5 -235.5t-48.5 -67.5q-47 0 -111.5 34 t-113 81t-48.5 78q-2 47 50 278q39 195 55 289q0 -4 33 170q29 156 34 190l-319 -39q-39 20 -62.5 60.5t-23.5 87.5z" />
<glyph unicode="U" horiz-adv-x="1202" d="M53 346q0 143 49.5 460.5t116.5 551.5q68 33 141 33q78 0 135.5 -42t77.5 -118q-59 -137 -115.5 -387t-56.5 -408q0 -153 59 -153h1q88 0 172 113.5t137 294.5t53 368q0 139 -32 262q102 113 217 113q80 0 149 -56q25 -149 25 -288q0 -305 -98.5 -557t-256 -397.5 t-321.5 -145.5q-82 0 -189.5 60.5t-185.5 145.5t-78 150z" />
<glyph unicode="V" horiz-adv-x="1159" d="M158 1241q0 137 30 145q8 2 27 3q45 0 111.5 -21.5t118 -54.5t59.5 -64q4 -12 4 -92q0 -113 -6 -276q-8 -266 -8 -412v-74q174 381 389 1022q61 20 125 21q84 0 142 -45t77 -138q-575 -1255 -664 -1255q-39 0 -112.5 34t-136 80t-70.5 79q-10 45 -37 376q-8 133 -14 195 q-4 53 -9 80q-26 264 -26 388v9z" />
<glyph unicode="W" horiz-adv-x="1466" d="M37 193q0 37 47 268q51 262 68 360l16 97q39 229 72.5 372.5t68.5 143.5q39 0 105.5 -35t117 -82t50.5 -82q0 -45 -27 -138t-80 -259q-84 -250 -121 -396l33 -12l82 125q96 147 150.5 215t99.5 68q188 0 248 -529q109 119 155.5 311.5t46.5 409.5q-74 36 -139 52 q-58 14 -125 14h-18q-49 84 -49 159q0 63 38.5 110.5t118.5 68.5q217 -35 338 -155t121 -296q0 -139 -55.5 -378.5t-148.5 -422t-201 -182.5q-62 0 -138.5 27.5t-135 65.5t-66.5 67q-6 20 -13.5 113.5t-9.5 125.5l-8 119q-113 -221 -212 -369.5t-157 -148.5q-47 0 -111.5 34 t-112.5 81t-48 78z" />
<glyph unicode="X" horiz-adv-x="1214" d="M-20 238q0 27 6 53q215 160 430 381q-127 164 -211 314.5t-84 217.5q0 35 41 77t97 70.5t97 28.5q35 0 65 -68.5t77 -219.5q57 -176 77 -230q215 297 324 559q55 14 109 15q104 0 163.5 -62.5t69.5 -175.5q-219 -262 -502 -586q90 -104 191.5 -191t199.5 -145v-18 q0 -106 -64 -180q-68 -79 -188 -78h-6q-90 82 -162.5 173t-144.5 220q-41 -57 -149 -203l-142 -190h-8q-130 0 -206 66q-80 68 -80 172z" />
<glyph unicode="Y" horiz-adv-x="1173" d="M119 1192q0 35 46 82t110.5 81t115.5 34q39 0 61.5 -69t57.5 -239q33 -178 65 -299q195 332 328 629q68 18 121 19q106 0 164.5 -63.5t62.5 -172.5l-129 -166q-20 -27 -157.5 -203t-288.5 -352l-23 -186q-16 -158 -31.5 -222.5t-48.5 -64.5q-47 0 -111.5 34t-112.5 81 t-48 78v9q0 36 13 96q16 69 55 228l14 56q-14 33 -109 225q-78 154 -116.5 245t-38.5 140z" />
<glyph unicode="Z" horiz-adv-x="1103" d="M2 301q0 12 4 25q10 33 114.5 142.5t307.5 311.5q258 258 336 344l-236 -20l-284 -27q-43 23 -67.5 72t-24.5 104q0 45 19 88t56 74q70 2 252 2q418 0 461 -20q35 -15 69.5 -66t57.5 -111.5t23 -97.5q0 -14 -3 -20q-31 -84 -263 -348.5t-455 -477.5q248 47 540 91 q47 -20 74 -72.5t27 -114.5q0 -98 -60 -160q-369 -18 -563 -18q-227 0 -254 21q-45 39 -88 130t-43 148z" />
<glyph unicode="[" horiz-adv-x="1079" d="M76 -57q0 20 29.5 167.5t62.5 309.5q23 117 40 202t28 138q29 150 66.5 349.5t59.5 334.5q10 61 71 108t122 50q152 4 253 10t269 24q39 -23 58.5 -62.5t19.5 -86.5q0 -41 -16.5 -82t-42.5 -68q-264 -4 -441 -20l-22 -105q-102 -500 -92 -452q-57 -297 -138 -744 q125 13 226.5 34.5t214.5 60.5q57 -27 89 -75t32 -106q0 -82 -64 -145q-127 -25 -284.5 -37t-292.5 -12q-37 0 -96.5 37t-105.5 86t-46 84z" />
<glyph unicode="\" horiz-adv-x="1034" d="M168 1358q0 33 41 79t96 80.5t96 34.5t77 -106.5t91 -343.5q63 -260 88 -348q31 -113 136 -441q37 -117 65.5 -211t28.5 -122q0 -35 -43 -74t-102.5 -65.5t-104.5 -26.5q-35 0 -73 117.5t-105 381.5l-84 314q-45 160 -111 366q-51 164 -73.5 246t-22.5 119z" />
<glyph unicode="]" horiz-adv-x="1067" d="M-74 -96q0 55 27 104t74 74q119 -25 214 -38t228 -28l8 54q82 483 113 690q22 141 38.5 260t28.5 205l13 92q-135 12 -455 20q-31 25 -48 62t-17 78q0 49 25.5 93t74.5 68q109 -8 141 -10q238 -20 412 -26q41 0 85 -39t73.5 -94.5t29.5 -102.5l-2 -18q-23 -150 -94 -588 q-23 -139 -39 -264q-80 -559 -96 -609q-10 -27 -50 -62.5t-89.5 -62t-83.5 -26.5q-307 0 -533 24q-39 23 -58.5 61t-19.5 83z" />
<glyph unicode="^" horiz-adv-x="1052" d="M129 1012l342 551q94 23 156 22q100 0 186 -49l242 -549q-12 -39 -50 -62.5t-96 -23.5q-29 0 -63 6l-141 479q-51 -102 -101 -212q-104 -217 -129 -267q-53 -12 -106 -12q-82 0 -146.5 28.5t-93.5 88.5z" />
<glyph unicode="_" horiz-adv-x="1202" d="M-63 -158q0 82 65 140q66 -2 203 -2q371 0 737 22q35 -23 53.5 -59.5t18.5 -79.5q0 -41 -17.5 -81t-48.5 -67l-438 -8q-332 -8 -492 -10q-38 20 -59.5 60t-21.5 85z" />
<glyph unicode="`" horiz-adv-x="567" d="M201 1561q25 80 84 124t135 44q74 0 143 -39l6 -97q2 -49 11 -147l63 -141q-10 -45 -47 -70t-90 -25q-27 0 -57 7q-61 70 -133 171t-115 173z" />
<glyph unicode="a" d="M29 342q0 182 75.5 372.5t212 315.5t308.5 125q61 0 124.5 -55.5t81.5 -112.5q10 45 30 79t42 34q53 0 117.5 -38t110 -88t45.5 -79q-2 -39 -32 -129t-95 -274q-39 -100 -70 -191q125 61 211 131q90 -31 134 -85t44 -124q0 -49 -69.5 -101t-166 -87t-163.5 -35 q-47 0 -107.5 35t-104.5 82t-44 73q0 20 17.5 55.5t37.5 72t27 49.5l-52 28q-109 -178 -208 -286.5t-195 -108.5q-66 0 -138.5 57.5t-122.5 139.5t-50 145zM350 285q166 102 289 252.5t168 332.5q-55 25 -105 25q-96 0 -171.5 -86t-120.5 -225.5t-60 -298.5z" />
<glyph unicode="b" horiz-adv-x="1126" d="M27 348q0 135 90 449q39 129 71.5 356t34.5 332q2 43 30 72.5t66 29.5q55 0 124 -42t117 -98t48 -95q-2 -98 -92 -332l162 65q113 -2 203 -43t142 -112.5t52 -161.5q0 -156 -92 -337t-246.5 -306t-328.5 -125q-90 0 -178.5 61.5t-145.5 145.5t-57 141zM352 397 q0 -63 13.5 -101t42.5 -38q73 0 150 86t127 205t50 205q0 23 -36.5 47t-87 41.5t-89.5 17.5q-23 0 -37 -8q-33 -18 -63.5 -95t-50 -177.5t-19.5 -182.5z" />
<glyph unicode="c" horiz-adv-x="1056" d="M27 401q0 162 74.5 339.5t207.5 296t299 118.5q102 0 194.5 -37t148 -98.5t55.5 -126.5q0 -63 -55.5 -113.5t-145.5 -50.5q-29 0 -60 6q-51 125 -112 176q-135 -88 -205 -245.5t-70 -321.5q0 -25 4 -74q193 9 357 199q100 -18 160.5 -75.5t60.5 -145.5 q0 -63 -72.5 -120.5t-181 -92.5t-209.5 -35q-98 0 -204.5 64.5t-176 158.5t-69.5 178z" />
<glyph unicode="d" d="M29 342q0 190 79.5 379.5t212 311.5t279.5 122q59 0 121.5 -30.5t118.5 -84.5q18 199 18 445q0 43 27.5 72.5t66.5 29.5q57 0 128 -41t120 -97t49 -91q0 -47 -20.5 -120t-73.5 -234q-74 -219 -92 -302q-55 -223 -84 -401q125 61 211 131q90 -31 134 -85t44 -124 q0 -49 -69.5 -101t-166 -87t-163.5 -35q-47 0 -107.5 35t-104.5 82t-44 73q0 20 17.5 55.5t37.5 72t27 49.5l-52 28q-109 -176 -206 -285.5t-185 -109.5q-66 0 -141.5 58.5t-128.5 139.5t-53 144zM350 285q139 104 254 224t193 277l18 80q-63 29 -113 29q-96 0 -171.5 -86 t-120.5 -225.5t-60 -298.5z" />
<glyph unicode="e" horiz-adv-x="1064" d="M27 401q0 150 70.5 328t195.5 302t282 124q113 0 204 -49t142.5 -123t51.5 -143q0 -86 -78 -169t-217 -145.5t-318 -89.5q-2 -25 -2 -74q0 -61 4 -92q102 10 203 55.5t219 127.5q80 -25 121 -78t41 -127q0 -61 -74.5 -119.5t-185.5 -93.5t-209 -35t-204.5 64.5 t-176 158.5t-69.5 178zM391 590q125 45 209 114.5t84 118.5q0 57 -80 78q-78 -57 -132 -137t-81 -174z" />
<glyph unicode="f" horiz-adv-x="919" d="M25 743q0 39 15 75t46 61q16 -1 39 -1q45 0 115 3l67 2q-33 250 -33 381q0 92 15 141q12 37 64.5 80t121 72.5t129.5 29.5q106 0 197.5 -44t144.5 -114.5t53 -142.5q0 -78 -55 -126t-143 -48q-33 0 -80 10q-23 147 -107 219q-33 -127 -50 -219t-19 -219q106 14 272 53 q37 -27 56.5 -64.5t19.5 -80.5q0 -66 -47 -129q-41 -4 -123 -8l-209 -17q-12 -94 -16 -153q-27 -254 -50.5 -379t-64.5 -125q-55 0 -122.5 30.5t-114 73.5t-46.5 76q0 37 26 112t75 200l53 141l-154 -25q-35 18 -55 55t-20 80z" />
<glyph unicode="g" horiz-adv-x="1120" d="M23 303q0 170 68.5 372t186 341t259.5 139q55 0 108 -50t84 -112q8 49 27.5 78t40.5 29q31 0 94 -40t114.5 -89t51.5 -74q0 -78 -60.5 -416t-131 -657.5t-101.5 -370.5q-47 -74 -146.5 -129t-193.5 -55q-88 0 -178 53t-147.5 131t-57.5 141q0 74 87 172.5t212 195.5 t319 235q35 27 105 75l-45 52q-125 -99 -251 -170.5t-208 -71.5q-47 0 -103.5 36t-95 88t-38.5 97zM311 309q193 80 307.5 223.5t124.5 294.5q-25 27 -62.5 47.5t-72.5 20.5q-71 0 -133.5 -91t-105.5 -227.5t-58 -267.5zM346 -395q0 -41 36 -71t91 -48q61 72 112.5 194.5 t108.5 313.5q-348 -272 -348 -389z" />
<glyph unicode="h" horiz-adv-x="1325" d="M16 201q0 25 16.5 85t39.5 134q80 262 125 469q25 115 43 237q29 164 49 252t52 148.5t79 60.5q35 0 103.5 -42t121.5 -96t53 -89q0 -31 -21.5 -69t-70.5 -107q-10 -14 -37.5 -57.5t-40.5 -71.5q-25 -59 -54.5 -151.5t-49.5 -180.5l37 -21q133 180 232.5 289t154.5 109 q39 0 94 -39t96 -89t41 -77q-2 -37 -23.5 -105.5t-66.5 -191.5q-57 -147 -102 -289q63 25 106 49.5t101 67.5q86 -37 126 -92q36 -49 36 -118q0 -9 -1 -17q0 -49 -74.5 -94.5t-172 -75t-154.5 -29.5q-47 0 -108.5 37t-106.5 85t-43 75q0 16 20.5 78.5t26.5 84.5 q39 123 58.5 196t19.5 108q0 25 -10 24q-45 0 -135.5 -78t-178.5 -180q-6 -160 -30.5 -295t-67.5 -135q-51 0 -118.5 35t-116 83t-48.5 83z" />
<glyph unicode="i" horiz-adv-x="788" d="M31 201q0 37 26.5 108.5t79.5 196.5q41 96 61.5 150.5t20.5 76.5q0 16 -19.5 35.5t-58.5 48.5q-45 35 -66.5 55.5t-21.5 42.5q0 43 40 100.5t94.5 98.5t93.5 41q47 0 103 -41t96 -97t40 -91q0 -90 -46 -257t-118 -360q49 23 86 47.5t103 75.5q92 -31 135 -87t43 -122 q0 -53 -68.5 -104t-167 -85t-174.5 -34q-53 0 -119.5 36t-114.5 84t-48 81zM227 1401q0 55 29 110.5t72 79.5q20 10 65 11q74 0 148.5 -33t91.5 -82q4 -10 4 -31q0 -47 -28.5 -104.5t-71.5 -97.5t-84 -40q-39 0 -93.5 32t-93.5 76t-39 79z" />
<glyph unicode="j" horiz-adv-x="636" d="M-457 -240q0 76 59.5 126.5t143.5 50.5q35 0 66 -9q55 -143 84.5 -198.5t72.5 -55.5q47 0 88 151.5t80 399.5q8 57 43 254q39 207 39 256q0 20 -16.5 36.5t-55.5 49.5q-41 31 -62.5 52.5t-21.5 44.5q0 43 37 100t91.5 97t99.5 40q43 0 103.5 -40t106.5 -92t46 -81 q2 -35 -45 -250q-8 -37 -35 -165t-45 -244q-20 -121 -45 -318q-20 -154 -32.5 -227.5t-31.5 -108.5q-35 -63 -141 -121.5t-188 -58.5q-97 0 -200 47t-172 120t-69 144zM199 1401q0 55 28.5 110.5t71.5 79.5q20 10 66 11q74 0 148.5 -33t90.5 -82q4 -10 4 -31 q0 -47 -28.5 -104.5t-71.5 -97.5t-84 -40q-39 0 -93.5 32t-93 76t-38.5 79z" />
<glyph unicode="k" horiz-adv-x="1232" d="M16 201q0 25 16.5 85t39.5 134q80 262 125 469q25 115 43 237q29 164 49 252t52 148.5t79 60.5q35 0 103.5 -42t121.5 -96t53 -89q0 -31 -21.5 -69t-70.5 -107q-10 -14 -37.5 -57.5t-40.5 -71.5q-25 -59 -54.5 -151.5t-49.5 -180.5l37 -21q149 199 237 298.5t156 99.5 q47 0 97 -45t83 -107.5t33 -105.5q0 -117 -91 -232.5t-231 -208.5q41 -39 70 -59t62 -33q63 20 159 74q61 -37 94 -86t33 -98q0 -86 -77.5 -142.5t-194.5 -56.5q-96 0 -177 56.5t-133.5 151.5t-70.5 206l39 63q113 45 171 104.5t58 106.5q0 20 -11 31.5t-30 11.5 q-45 0 -110.5 -60.5t-182.5 -187.5q-2 -2 -47 -53q-6 -160 -30.5 -295t-67.5 -135q-51 0 -118.5 35t-116 83t-48.5 83z" />
<glyph unicode="l" horiz-adv-x="788" d="M16 203q0 35 29 172t37 176q61 283 82 391l20 115q43 238 79 383t73 145q43 0 113.5 -37t124 -86t53.5 -86q0 -49 -17.5 -95t-52.5 -120q-33 -63 -45 -98q-39 -121 -83 -336t-73 -416q66 33 103 56.5t86 64.5q90 -31 134 -85t44 -124q0 -49 -69.5 -101t-166 -87 t-163.5 -35q-60 0 -132.5 36t-124 84t-51.5 83z" />
<glyph unicode="m" horiz-adv-x="1933" d="M31 201q0 37 26.5 108.5t79.5 196.5q41 96 61.5 150.5t20.5 76.5q0 16 -19.5 35.5t-58.5 48.5q-45 35 -66.5 55.5t-21.5 42.5q0 43 40 100.5t94.5 98.5t93.5 41q43 0 99 -39t98 -89t42 -77q0 -49 -11 -120.5t-30 -141.5q162 213 250 312.5t143 99.5q39 0 91.5 -33 t90.5 -75t36 -66q-2 -51 -14.5 -110.5t-35.5 -145.5q170 217 267.5 323.5t152.5 106.5q39 0 94.5 -39t95.5 -89t40 -77q-2 -35 -29 -119t-76 -223q-66 -180 -84 -244q66 35 101.5 58.5t85.5 64.5q90 -31 135 -85t45 -124q0 -49 -71 -101t-167 -87t-164 -35q-45 0 -106.5 37 t-106.5 85t-45 75q0 16 20.5 78.5t26.5 84.5q39 123 58.5 196t19.5 108q0 25 -10 24q-86 0 -305 -287q-16 -59 -31 -149q-25 -131 -43 -191.5t-49 -60.5q-43 0 -106.5 37t-110.5 85t-47 79q0 20 45 159q37 117 57.5 192t20.5 112q0 25 -13 24q-82 0 -305 -287 q-8 -33 -17 -82t-13 -69q-23 -121 -42.5 -185.5t-50.5 -64.5q-53 0 -119.5 36t-114.5 84t-48 81z" />
<glyph unicode="n" horiz-adv-x="1351" d="M31 201q0 37 26.5 108.5t79.5 196.5q41 96 61.5 150.5t20.5 76.5q0 16 -19.5 35.5t-58.5 48.5q-45 35 -66.5 55.5t-21.5 42.5q0 43 40 100.5t94.5 98.5t93.5 41q43 0 99 -39t98 -89t42 -77q0 -49 -11 -120.5t-30 -141.5q150 197 248 304.5t154 107.5q39 0 94 -39t95 -89 t40 -77q-2 -35 -28.5 -119t-75.5 -223q-66 -180 -84 -244q63 33 99 56.5t87 66.5q90 -31 134 -85t44 -124q0 -49 -69.5 -101t-166 -87t-163.5 -35q-47 0 -108.5 37t-105.5 85t-44 75q0 20 45 159q80 244 80 308q0 25 -13 24q-82 0 -305 -287q-8 -33 -17 -82t-13 -69 q-23 -121 -42.5 -185.5t-50.5 -64.5q-53 0 -119.5 36t-114.5 84t-48 81z" />
<glyph unicode="o" horiz-adv-x="1046" d="M25 362q0 125 30.5 257.5t94.5 257.5q57 32 115 32h3q27 0 49 -6q-8 25 -8 58q0 66 46 119t128 77q146 -16 265.5 -87t187.5 -169t68 -196q0 -147 -76 -313.5t-211 -279t-301 -112.5q-82 0 -174 60.5t-154.5 147.5t-62.5 154zM334 344q0 -61 8 -111q170 58 264 197 t125 332q-91 65 -245 65h-5q-39 0 -59 -2q23 -41 22 -92q-53 -84 -81.5 -185.5t-28.5 -203.5z" />
<glyph unicode="p" horiz-adv-x="1191" d="M-63 -342q0 39 34.5 172t106.5 385q63 225 98 354t35 164q0 16 -17.5 33.5t-56.5 50.5q-43 35 -63.5 55.5t-20.5 42.5q0 43 40 100.5t94.5 98.5t93.5 41q59 0 135 -65.5t108 -131.5l80 136q77 26 154 26h6q108 0 192 -51t130.5 -140t46.5 -200q0 -164 -93.5 -335 t-244 -282.5t-312.5 -111.5q-70 0 -139 55q-25 -102 -38 -209.5t-15 -126.5q-16 -139 -31.5 -200.5t-48.5 -61.5q-53 0 -117.5 35t-110.5 83t-46 83zM428 342q0 -39 15.5 -59.5t39.5 -20.5q66 0 144 68.5t131 170t53 193.5q0 68 -33 105t-94 37q-72 0 -130 -81t-92 -198 t-34 -215z" />
<glyph unicode="q" horiz-adv-x="1249" d="M29 342q0 182 75.5 372.5t212 315.5t308.5 125q61 0 124.5 -55.5t81.5 -112.5q10 45 30 79t42 34q53 0 117.5 -38t110 -88t45.5 -79q0 -57 -29 -168t-80 -283l-29 -98l-14 -53q-8 -27 -49 -167t-113 -331l15 -8l28 35q102 123 161.5 178t117.5 55q68 0 115 -56t53 -128 l-39 -37q-152 -150 -261.5 -242t-168.5 -92q-58 0 -126.5 35t-116.5 83t-48 83q0 29 70 291q47 176 51 198q6 43 82 177l-52 28q-109 -178 -208 -286.5t-195 -108.5q-66 0 -138.5 57.5t-122.5 139.5t-50 145zM350 285q166 102 289 252.5t168 332.5q-55 25 -105 25 q-96 0 -171.5 -86t-120.5 -225.5t-60 -298.5z" />
<glyph unicode="r" horiz-adv-x="1058" d="M53 915q0 43 41 100.5t96.5 98.5t94.5 41q43 0 98 -39t96 -89t41 -77q0 -78 -31 -205l25 -12q47 76 103.5 181.5t68.5 129.5l39 74h19q127 0 192 -51q70 -55 70 -147q0 -90 -60 -181q-147 -49 -250.5 -97t-208.5 -114q-6 -227 -35.5 -377.5t-86.5 -150.5q-56 0 -121.5 36 t-112.5 84t-47 81q0 39 16.5 101.5t49.5 162.5q33 104 49 166.5t16 101.5q0 16 -18.5 34.5t-57.5 49.5q-45 37 -65.5 57.5t-20.5 40.5z" />
<glyph unicode="s" horiz-adv-x="1040" d="M20 219q0 84 54.5 134t142.5 50q41 0 84 -12q35 -111 59 -158q125 33 224 111q-172 74 -314.5 166t-142.5 172q0 82 76 195.5t193.5 196.5t240.5 83q84 0 160.5 -49t124 -123t47.5 -143q0 -68 -52.5 -110t-132.5 -42q-51 0 -104 21q-4 82 -37 200q-92 -69 -148.5 -136.5 t-56.5 -115.5q0 -23 39 -46t129 -64q143 -66 225 -122t82 -130t-82.5 -142.5t-205.5 -111.5t-230 -43q-80 0 -168 34t-147.5 86t-59.5 99z" />
<glyph unicode="t" horiz-adv-x="888" d="M14 911q0 82 60 140q74 -4 180 -9q0 131 28.5 290t63.5 159q43 0 108.5 -37t114.5 -86t49 -86q0 -47 -17 -95t-56 -132q35 4 176 28l47 9q37 -20 56.5 -59.5t19.5 -84.5q0 -37 -14.5 -71.5t-43.5 -59.5l-305 -12q-68 -309 -88 -504q131 63 211 131q90 -31 134 -85 t44 -124q0 -49 -69.5 -101t-165.5 -87t-164 -35q-59 0 -132 36t-124 84t-51 83q0 29 21.5 124t39 163.5t25.5 101.5l49 196l-125 -8q-35 16 -53.5 51t-18.5 80z" />
<glyph unicode="u" horiz-adv-x="1392" d="M53 915q0 43 40 100.5t94.5 98.5t93.5 41q43 0 99 -39t98 -89t42 -77q0 -127 -43 -305t-110 -354q135 113 241.5 250t149.5 245q4 133 31.5 223.5t64.5 90.5q53 0 117.5 -38t109.5 -88t45 -79q-2 -43 -38.5 -161t-102.5 -302q-39 -115 -45 -131q59 27 107.5 56.5 t101.5 74.5q90 -31 134 -85t44 -124q0 -49 -69.5 -101t-166 -87t-163.5 -35q-43 0 -102.5 36t-105.5 82t-46 68q0 23 15.5 55.5t34.5 70.5t30 55l-52 28q-113 -207 -193.5 -301t-182.5 -94q-54 0 -116.5 40t-105.5 92t-43 85t19.5 94.5t41 123t28.5 77.5q27 72 48 135.5 t21 85.5q0 16 -19.5 35.5t-58.5 48.5q-45 35 -66.5 55.5t-21.5 42.5z" />
<glyph unicode="v" horiz-adv-x="1126" d="M-18 860q0 45 37.5 101.5t94 97.5t103.5 41t106.5 -37t102.5 -86t43 -82q0 -289 -115 -631l35 -14q135 195 217 409.5t131 468.5q80 29 144 29q80 0 130 -45t64 -133q-39 -164 -165 -399.5t-275.5 -407.5t-263.5 -172q-33 0 -103.5 39t-128 88t-57.5 76q0 49 24 157 q20 100 30.5 170t10.5 144q0 20 -19 39.5t-62 54.5q-41 29 -62.5 50.5t-21.5 41.5z" />
<glyph unicode="w" horiz-adv-x="1507" d="M-18 860q0 45 37.5 101.5t94 97.5t103.5 41t106.5 -37t102.5 -86t43 -82q0 -289 -115 -631l39 -20q43 66 79 137.5t62.5 129.5t34.5 75q53 119 83 170t57 51q29 0 77 -32t85.5 -71.5t37.5 -60.5q0 -207 -12 -344q188 162 287 463q-92 51 -248 90q-25 59 -25 111 q1 86 61 142q58 54 156 54h7q145 -53 231 -150.5t86 -207.5q0 -139 -85 -332t-216 -331t-260 -138q-45 0 -90 52t-74 137t-29 182q0 66 11 110q-74 -190 -169.5 -335.5t-179.5 -145.5q-31 0 -98 39t-122.5 88t-55.5 76q0 48 25 157q2 16 14 80t18 123.5t6 110.5 q0 20 -19 39.5t-62 54.5q-41 29 -62.5 50.5t-21.5 41.5z" />
<glyph unicode="x" horiz-adv-x="1257" d="M31 217q0 31 6 57q231 121 371 261q-115 170 -170.5 268t-55.5 160q0 29 39 62.5t94.5 56t100.5 22.5q39 0 62.5 -58.5t56.5 -191.5q18 -80 43 -166q96 125 157.5 221.5t124.5 235.5q61 14 96 14q92 0 149.5 -52t68.5 -138q-63 -133 -488 -557q39 -84 68 -127 q61 29 110 62.5t107 84.5q100 -4 156.5 -59.5t56.5 -136.5q0 -53 -65.5 -108.5t-157 -91.5t-160.5 -36q-63 0 -124 68.5t-130 193.5q-145 -156 -254 -262q-10 -2 -33 -2q-100 0 -164.5 62.5t-64.5 156.5z" />
<glyph unicode="y" horiz-adv-x="1165" d="M53 915q0 43 40 100.5t94.5 98.5t93.5 41q43 0 99 -39t98 -89t42 -77q0 -115 -31.5 -273.5t-91.5 -324.5q166 86 332 221q27 262 51.5 394.5t69.5 132.5q31 0 93.5 -42t112.5 -94.5t50 -80.5q0 -43 -63.5 -390.5t-133 -668t-100.5 -369.5q-45 -74 -147.5 -129t-198.5 -55 q-82 0 -175 55.5t-155.5 136t-62.5 148.5q0 90 204.5 263t532.5 398l-37 56q-127 -103 -264 -182.5t-211 -79.5q-31 0 -81 33.5t-88 80.5t-38 86q0 37 17.5 96.5t56.5 172.5q57 160 57 198q0 16 -19.5 35.5t-58.5 48.5q-45 35 -66.5 55.5t-21.5 42.5zM377 -399q0 -39 41 -72 t102 -43q68 96 114 207.5t103 300.5q-360 -282 -360 -393z" />
<glyph unicode="z" horiz-adv-x="1292" d="M35 215q0 31 10 68q238 117 393.5 255t270.5 328q-12 -2 -33 -2q-31 0 -88 15q-27 10 -49 10q-59 0 -136 -207q-33 -8 -75 -8q-106 0 -185.5 52t-79.5 128q0 55 49.5 127t125 123t149.5 51q59 0 110.5 -24.5t114.5 -69.5q37 -29 61.5 -42t45.5 -13q72 0 143 100 q41 6 76 6q102 0 160.5 -48t58.5 -136q0 -70 -185.5 -266.5t-385.5 -368.5q41 -39 90 -39q68 0 180.5 66.5t185.5 140.5q93 -39 136 -85t43 -118q0 -59 -68 -119.5t-166 -99.5t-182 -39q-55 0 -103.5 22.5t-105.5 63.5q-29 18 -54.5 32.5t-41.5 14.5q-35 0 -90.5 -33.5 t-147.5 -99.5q-100 2 -163.5 63.5t-63.5 151.5z" />
<glyph unicode="{" horiz-adv-x="1052" d="M156 -14q0 14 16 47t39 69q72 121 115 227.5t36 219.5q-55 27 -104 66.5t-49 66.5q0 31 22.5 72t55 69.5t59.5 28.5q31 0 73 -25.5t83 -66.5q55 43 55 88q0 37 -25.5 72.5t-76.5 89.5q-74 76 -114 137t-40 137q0 90 63.5 176t167 141.5t220.5 55.5q88 0 167.5 -42 t129 -108.5t49.5 -136.5q0 -63 -51.5 -102t-126.5 -39q-51 0 -105 18q-16 92 -47 164q-133 -66 -133 -209q0 -57 33.5 -107.5t99.5 -117.5q68 -72 100.5 -120t32.5 -107q0 -84 -67.5 -140.5t-200.5 -70.5q2 -16 2 -50q0 -123 -41 -253t-102 -220q76 27 119.5 52.5 t109.5 76.5q92 -31 135 -87t43 -121q0 -51 -72.5 -103.5t-174 -86.5t-177.5 -34q-59 0 -135 49.5t-130 115t-54 108.5z" />
<glyph unicode="|" horiz-adv-x="591" d="M-18 -137q0 47 75 407q63 301 90 459q2 14 21 133q47 317 88 515t88 198q39 0 105.5 -35t116.5 -82t50 -82q0 -16 -51 -229q-82 -328 -116 -526q-6 -39 -48 -310q-51 -332 -81.5 -487.5t-65.5 -155.5q-47 0 -111.5 35t-112.5 82t-48 78z" />
<glyph unicode="}" horiz-adv-x="1046" d="M-109 -53q0 74 56.5 123t154.5 49q41 0 76 -8q20 -74 45 -119t58 -45q82 0 131 82t49 196q0 84 -30 165t-89 142l125 105q-76 39 -126 88t-50 96q0 31 32.5 68t104.5 100q127 113 200.5 208t73.5 210q-100 -33 -175.5 -72t-172.5 -112q-68 12 -111.5 56t-43.5 99 q0 74 73.5 137.5t185 100.5t216.5 37q49 0 126 -42t133 -100.5t56 -107.5q0 -272 -399 -608l133 47q47 0 96 -54.5t49 -103.5q0 -31 -33.5 -59.5t-101.5 -69.5q-63 -37 -92 -63q121 -145 121 -318q0 -121 -62.5 -226.5t-178 -169t-265.5 -63.5q-102 0 -185 34t-131.5 87 t-48.5 111z" />
<glyph unicode="~" horiz-adv-x="1253" d="M37 584q76 100 190.5 188t192.5 88q74 0 206 -60.5t242 -137.5h13l161 176q10 2 31 2q66 0 111 -37t45 -96q-68 -100 -185.5 -188.5t-195.5 -88.5q-88 0 -203 53.5t-225 132.5l-17 5l-182 -185q-8 -2 -24 -2q-68 0 -114 41t-46 109z" />
<glyph unicode="&#xa1;" horiz-adv-x="686" d="M-59 -375q0 31 47 158q25 70 51.5 151.5t40.5 153.5q23 104 39 272q12 117 25.5 173.5t37.5 66.5q9 4 29 4q41 0 89 -26.5t83 -64.5t35 -67q2 -68 -36 -327.5t-91 -472.5t-103 -213q-49 0 -107 31.5t-99 77.5t-41 83zM119 948q0 37 48 80t112.5 72.5t109.5 29.5 q35 0 73 -37.5t63.5 -91t25.5 -94.5q0 -35 -48 -73.5t-116 -65.5t-121 -27q-35 0 -69.5 36t-56 86t-21.5 85z" />
<glyph unicode="&#xa2;" horiz-adv-x="1056" d="M27 401q0 139 56 293t160.5 276t239.5 167q6 119 25.5 181t60.5 62q43 0 101.5 -31.5t101.5 -73.5t43 -69q0 -35 -12 -88q90 -37 146.5 -98.5t56.5 -126.5q0 -63 -55.5 -113.5t-145.5 -50.5q-29 0 -60 6q-51 125 -112 176q-135 -88 -205 -245.5t-70 -321.5q0 -25 4 -74 q193 8 357 199q102 -18 161.5 -75.5t59.5 -145.5q0 -74 -94 -137.5t-230 -94.5q-12 -92 -31.5 -153.5t-41.5 -61.5q-55 0 -118 21.5t-104.5 56.5t-41.5 70q0 20 7 54t11 48q-113 61 -191.5 161.5t-78.5 188.5z" />
<glyph unicode="&#xa3;" horiz-adv-x="1241" d="M-20 231q0 51 39.5 116t99 110t114.5 45q25 0 54 -13q33 84 39 132l-117 -11q-31 18 -47.5 53t-16.5 78q0 41 14.5 78t43.5 62l170 2q35 193 80 313.5t130 190t222 69.5q104 0 188 -47t132.5 -118.5t48.5 -145.5q0 -76 -46.5 -117t-123.5 -41q-39 0 -74 8 q-14 68 -49 136.5t-80 97.5q-117 -66 -162 -336l207 16q31 -18 49 -58t18 -85q0 -41 -14 -78t-39 -61l-274 -9q-18 -113 -74 -264l164 -84q88 39 152.5 78t127.5 90q90 -10 144.5 -67.5t54.5 -139.5q0 -35 -12 -75q-72 -66 -166 -111t-154 -45q-57 0 -138 40t-228 130 q-133 -172 -234 -172q-41 0 -99 38t-101 93t-43 102z" />
<glyph unicode="&#xa4;" horiz-adv-x="1310" d="M59 340q0 23 47.5 69t120.5 99q10 139 54 272q-143 147 -164 193q-6 12 -6 33q0 59 42 141t89 106q27 14 80 -28.5t135 -137.5q55 45 125.5 70t144.5 25q127 0 223 -66q152 141 207 141q8 0 17 -4q39 -27 67.5 -99.5t28.5 -133.5q0 -37 -13 -55q-20 -35 -124 -125 q2 -12 2 -41q-4 -129 -74 -277q74 -61 119 -112.5t43 -77.5q-4 -39 -36 -95.5t-72 -96.5t-66 -38q-25 2 -75 45t-108 111q-135 -115 -293 -115q-88 0 -192 80q-135 -121 -180 -121q-27 0 -61 41t-57.5 98.5t-23.5 98.5zM508 444q0 -43 6 -84q158 54 249 183t124 309 q-74 55 -154 55q-70 0 -127 -39q-98 -242 -98 -424z" />
<glyph unicode="&#xa5;" horiz-adv-x="1173" d="M23 362q0 74 61 130q115 0 283 4l18 94l-233 -15q-41 20 -65 56.5t-24 79.5q0 74 62 129l131 2q-68 137 -102.5 220t-34.5 130q0 35 46 82t111.5 81t120.5 34q35 0 59.5 -82t59.5 -260q39 -203 59 -275q76 152 120 271.5t116 347.5q78 27 143 26q94 0 150.5 -55 t69.5 -150q-119 -154 -232 -329l121 12q39 -23 58.5 -57.5t19.5 -73.5q0 -37 -15.5 -73t-44.5 -62l-368 -21l-25 -86q217 12 334 25q39 -23 58.5 -57.5t19.5 -73.5q0 -37 -15.5 -73t-44.5 -62l-389 -21q-16 -143 -30.5 -201.5t-47.5 -58.5q-47 0 -111.5 34t-112.5 81t-48 78 q0 29 4 47l-194 -13q-41 20 -64.5 56t-23.5 79z" />
<glyph unicode="&#xa6;" horiz-adv-x="587" d="M-20 -139q0 20 24 137l37 182l22 131q23 137 41.5 207t49.5 70q39 0 101 -37t109.5 -85t47.5 -83q0 -41 -35 -201l-31 -157l-20 -117q-23 -129 -39.5 -184.5t-38.5 -55.5q-47 0 -110.5 34t-110.5 80t-47 79zM164 848q0 35 29 178l28 141l23 129q23 143 42 211t54 68 q39 0 105.5 -35t116.5 -82t50 -82q0 -20 -13 -70.5t-17 -66.5q-35 -121 -56 -227l-24 -135q-18 -117 -32.5 -169.5t-37.5 -52.5q-47 0 -110.5 34t-110.5 80t-47 79z" />
<glyph unicode="&#xa7;" horiz-adv-x="1251" d="M-6 -268q-4 90 59.5 146t169.5 56q53 0 109 -14q25 -135 43 -194q162 31 282 145q-283 156 -422 282t-139 257q0 86 66.5 180t179.5 182q-43 49 -63.5 92t-20.5 92q0 76 69.5 192t179 201t222.5 85q92 0 181 -62.5t144.5 -154t55.5 -170.5q0 -76 -58.5 -124.5 t-144.5 -48.5q-63 0 -131 31q12 61 12 113q0 63 -16 102t-41 39q-37 0 -70.5 -34.5t-55 -83t-21.5 -83.5q0 -76 64.5 -138t195.5 -154q125 -86 187.5 -146.5t62.5 -130.5q0 -76 -77 -161t-204 -167q139 -104 139 -194q0 -102 -85 -194.5t-211 -148.5t-240 -56 q-92 0 -190.5 46t-164 108.5t-67.5 109.5zM399 414q0 -98 179 -183q70 37 113.5 74t78.5 84q-166 121 -250 197q-121 -90 -121 -172z" />
<glyph unicode="&#xa8;" horiz-adv-x="960" d="M174 1391q0 53 27.5 106t68.5 76q27 10 62 10q70 0 141.5 -31.5t87.5 -78.5q4 -16 4 -29q0 -43 -27.5 -98.5t-68.5 -93.5t-80 -38q-37 0 -89 30t-89 72t-37 75zM666 1391q0 53 27.5 106t68.5 76q27 10 61 10q70 0 141.5 -31.5t88.5 -78.5q4 -16 4 -29q0 -43 -28 -98.5 t-68.5 -93.5t-79.5 -38q-37 0 -89.5 30t-89 72t-36.5 75z" />
<glyph unicode="&#xa9;" horiz-adv-x="1437" d="M49 594q0 186 87 352t248 267.5t374 101.5q207 0 352 -86t219 -226.5t74 -302.5q0 -190 -91 -350t-259 -255t-387 -95q-172 0 -313.5 80t-222.5 216t-81 298zM254 604q0 -119 52 -214t144.5 -148.5t208.5 -53.5q166 0 293 70t194.5 189.5t67.5 267.5q0 117 -52 210 t-153.5 147t-240.5 54q-158 0 -274.5 -72.5t-178 -192.5t-61.5 -257zM387 555q0 117 48 226.5t132 178t189 68.5q76 0 136 -26.5t93 -67.5t33 -84q0 -41 -35 -68.5t-102 -27.5l-31 2q-12 37 -34.5 69.5t-45.5 48.5q-84 -47 -130 -144t-46 -214q0 -29 2 -43q168 6 295 117 q57 -20 87 -51t30 -66q0 -43 -42 -83t-121 -64.5t-179 -24.5q-66 0 -130.5 41t-106.5 101.5t-42 111.5z" />
<glyph unicode="&#xaa;" horiz-adv-x="1044" d="M111 967q-2 119 49 243.5t146 207.5t214 83q37 0 80 -31.5t64 -72.5q8 29 21 49t28 20q33 0 80 -25.5t81.5 -59t34.5 -58.5q0 -47 -88 -270l-37 -99q72 33 138 80q59 -18 93 -56t36 -89q0 -35 -49.5 -71t-116 -59.5t-113.5 -23.5q-33 0 -77 23.5t-75.5 55.5t-31.5 54 q0 31 49 111l-27 12q-160 -256 -274 -256q-45 0 -97.5 38t-90 92.5t-37.5 101.5zM344 942q115 68 192.5 160t106.5 196q-37 14 -68 15q-96 0 -156.5 -107.5t-74.5 -263.5z" />
<glyph unicode="&#xab;" horiz-adv-x="1507" d="M94 670q0 76 41 129l520 393q76 -12 115 -60.5t39 -113.5q0 -63 -33 -117l-438 -239l371 -224q4 -18 4 -51q0 -90 -61.5 -147.5t-162.5 -67.5l-391 459q-4 25 -4 39zM729 649q0 76 41 129l504 322q84 -8 127 -54.5t43 -111.5q0 -55 -33 -115l-438 -170l409 -188 q6 -27 7 -55q0 -90 -59.5 -146.5t-155.5 -64.5l-441 415q-4 25 -4 39z" />
<glyph unicode="&#xac;" horiz-adv-x="1284" d="M94 791q0 82 68 141q131 -4 217 -4q227 0 549 10l102 2q51 0 100.5 -35t79 -86t29.5 -98q0 -14 -2 -23q-45 -215 -86 -434q-53 -33 -119 -33q-57 0 -104 26t-68 73q37 125 90 338q-346 -16 -776 -23q-37 20 -58.5 60t-21.5 86z" />
<glyph unicode="&#xad;" horiz-adv-x="950" d="M76 678q0 82 61 137q123 0 246 6t244 17q35 2 157 10q39 -23 58.5 -60.5t19.5 -82.5q0 -41 -16.5 -79t-42.5 -65q-250 -4 -639 -31q-41 21 -64.5 61t-23.5 87z" />
<glyph unicode="&#xae;" horiz-adv-x="862" d="M150 1151q0 121 46 233.5t130 183t192 70.5q111 0 206 -41t150.5 -109.5t55.5 -148.5q0 -123 -61.5 -235.5t-169 -183t-238.5 -70.5q-84 0 -156 44t-113.5 113.5t-41.5 143.5zM262 1149q0 -82 56.5 -138.5t140.5 -56.5q98 0 183 53.5t135 140.5t50 187q0 98 -86 150.5 t-200 52.5q-127 0 -203 -106.5t-76 -282.5zM367 1106l65 266h-14q-20 20 -21 49q0 29 21 49q41 10 88 11q88 0 143.5 -36t55.5 -99q0 -109 -152 -140q49 -35 129 -63q2 -6 2 -21q0 -33 -21.5 -55.5t-56.5 -26.5q-76 49 -119 131q-6 -61 -13 -96t-21 -35q-18 0 -52 22.5 t-34 43.5zM498 1270q102 12 110 69q2 23 -15.5 35t-47.5 12l-23 -2z" />
<glyph unicode="&#xaf;" horiz-adv-x="978" d="M176 1356q0 70 57 127q244 0 408 5t342 25q78 -51 78 -129q0 -37 -17.5 -69.5t-48.5 -57.5q-459 -14 -733 -28q-41 18 -63.5 53t-22.5 74z" />
<glyph unicode="&#xb0;" horiz-adv-x="686" d="M123 1055q0 154 78 286q45 27 98 23q-4 16 -4 25q0 39 31.5 69.5t87.5 44.5q92 -8 168.5 -49t121 -97.5t44.5 -111.5q0 -82 -48.5 -176t-133.5 -157.5t-191 -63.5q-51 0 -110.5 33.5t-100.5 83t-41 90.5zM336 1049q0 -18 4 -56q174 62 215 283q-63 37 -164 33 q12 -20 12 -47q-33 -43 -50 -99.5t-17 -113.5z" />
<glyph unicode="&#xb1;" horiz-adv-x="931" d="M43 258q0 82 61 137q174 2 314.5 9.5t357.5 23.5q39 -23 58.5 -60.5t19.5 -82.5q0 -41 -16.5 -79t-42.5 -65q-285 -6 -664 -30q-41 20 -64.5 60t-23.5 87zM59 827q0 84 68 144q104 -8 252 -13q6 117 6 205q57 55 131 56q51 0 92 -26t60 -71q-12 -55 -39 -155 q135 6 235 24q35 -22 53.5 -58t18.5 -77q0 -43 -17.5 -83t-46.5 -68q-90 8 -272 12q-2 -31 -2 -94v-101q-51 -51 -137 -51q-47 0 -87 20.5t-63 59.5q20 84 25 108l12 52l-90 -11q-78 -8 -119 -14q-37 20 -58.5 58t-21.5 83z" />
<glyph unicode="&#xb2;" horiz-adv-x="811" d="M84 803q0 35 43 72.5t141 103.5q129 88 209 156.5t121 156.5q-100 -20 -157.5 -41.5t-129.5 -70.5q-55 10 -92 47t-37 88q0 82 117 134t285 52q53 0 106 -31.5t87 -83t34 -104.5q0 -106 -124 -226t-376 -263l11 -17q84 35 202.5 65.5t163.5 30.5q43 0 74 -37.5t31 -86.5 q0 -53 -37 -97l-113 -20q-102 -18 -210.5 -34.5t-170.5 -16.5q-39 0 -81 36.5t-69.5 90t-27.5 96.5z" />
<glyph unicode="&#xb3;" horiz-adv-x="888" d="M76 745q0 53 55 87t148 34q39 0 77 -6q6 -45 29 -117q72 20 130 59.5t81 90.5q-29 14 -57.5 17t-71.5 3q-6 0 -38 2.5t-52 12.5q-35 18 -55.5 62t-20.5 89q0 20 25.5 34.5t83.5 33.5q98 33 161.5 69.5t98.5 106.5q-178 -18 -334 -98q-51 20 -78 54t-27 73q0 66 118 107.5 t274 41.5q70 0 132 -34.5t102 -82t40 -79.5q0 -72 -90 -140.5t-248 -111.5l-4 -17q92 -2 170 -26.5t122 -60.5t44 -70q0 -68 -80 -138.5t-201 -115.5t-233 -45q-74 0 -143.5 26.5t-113.5 65.5t-44 73z" />
<glyph unicode="&#xb4;" horiz-adv-x="497" d="M145 1311q35 45 63 92t38 63q16 106 24 224q70 34 146 34q86 0 145.5 -45t61.5 -120q-131 -182 -304 -349q-12 -2 -34 -2q-53 0 -91 26t-49 77z" />
<glyph unicode="&#xb5;" horiz-adv-x="1581" d="M-80 -242q0 20 19.5 64.5t64.5 132.5q143 283 232 508q59 152 133 407q43 147 67.5 207t57.5 60q43 0 92 -35t85 -80t36 -72q0 -78 -34 -189.5t-93 -264.5q-43 -117 -57.5 -164t1.5 -47q27 0 109 75.5t171 191.5t142 234q4 133 32 223.5t64 90.5q53 0 118 -38t110 -88 t45 -79q-2 -43 -39 -161t-102 -302q-39 -115 -46 -131q59 27 107.5 56.5t101.5 74.5q90 -31 134.5 -85t44.5 -124q0 -49 -70 -101t-166 -87t-164 -35q-43 0 -102.5 36t-105.5 82t-46 68q0 23 15.5 55.5t35 70.5t29.5 55l-51 28q-113 -207 -194 -301t-183 -94 q-31 0 -58.5 18.5t-62.5 51.5q-96 -242 -160.5 -370t-111.5 -128q-37 0 -84 36t-82 82t-35 68z" />
<glyph unicode="&#xb6;" horiz-adv-x="1583" d="M94 1008q0 129 76 232t240.5 164.5t420.5 61.5q57 0 89 -2l79 -4q231 -8 349 -20q37 -4 76.5 -41t65.5 -89.5t26 -99.5l-3 -20l-110 -731q-10 -63 -16.5 -116.5t-12.5 -90.5q-39 -289 -68.5 -433.5t-72.5 -144.5q-49 0 -108.5 37t-101.5 90.5t-42 96.5q0 27 19.5 133 t27.5 151q111 561 160 977l-232 12q-18 -145 -20 -159q-10 -76 -48 -357.5t-77 -502.5q-39 -223 -144.5 -350.5t-277.5 -127.5q-96 0 -161.5 53.5t-65.5 139.5q0 63 39 133q123 4 192.5 59.5t107.5 176t62 346.5q-219 25 -344 141.5t-125 284.5z" />
<glyph unicode="&#xb7;" horiz-adv-x="645" d="M127 756q0 35 48 73.5t115.5 65.5t121.5 27q35 0 69.5 -36t56 -86t21.5 -85q0 -37 -48 -80t-112.5 -73t-109.5 -30q-35 0 -73 38t-63.5 91.5t-25.5 94.5z" />
<glyph unicode="&#xb8;" horiz-adv-x="872" d="M-131 -430q0 43 28.5 70.5t75.5 21.5q51 -45 114 -68.5t122 -23.5q78 0 126 30.5t48 77.5q0 43 -45 76q-47 -8 -96 -43l-23 -2q-53 0 -93 29t-44 76l158 317l182 -59l-109 -181q53 20 111 21q104 0 176 -65.5t72 -170.5q0 -80 -50.5 -145.5t-144.5 -105t-221 -39.5 q-113 0 -214 39.5t-171 121.5q-2 8 -2 23z" />
<glyph unicode="&#xb9;" horiz-adv-x="659" d="M162 1268q0 31 71.5 87t159.5 101t127 45t87 -25.5t81 -63.5t33 -66q0 -35 -41 -172q-45 -166 -55 -216q-12 -61 -27 -198q-12 -102 -22.5 -141t-40.5 -39q-39 0 -89.5 23.5t-86 56t-35.5 55.5q2 43 60 219t116 297l-23 12q-121 -139 -182 -139q-25 0 -57.5 26.5 t-54 65.5t-21.5 72z" />
<glyph unicode="&#xba;" horiz-adv-x="753" d="M117 975q-4 195 73 346q41 20 86 20q18 0 27 -2q-4 20 -4 31q0 45 30.5 81t88.5 52q106 -12 195 -60t140.5 -118t51.5 -139q0 -96 -51.5 -202.5t-144.5 -177.5t-212 -71q-59 0 -124.5 37t-110.5 93.5t-45 109.5zM340 989q0 -49 8 -88q117 41 176.5 119t79.5 209 q-72 47 -207 41q10 -18 11 -51q-68 -100 -68 -230z" />
<glyph unicode="&#xbb;" horiz-adv-x="1564" d="M72 381q0 41 18 84l483 225l-413 135q-23 51 -23 97q0 66 45 114.5t129 65.5l504 -326q10 -20 10 -55q0 -59 -28 -113l-533 -413q-88 4 -140 57t-52 129zM733 367q0 31 10 67l502 268l-385 226q-8 31 -8 63q0 82 53 137.5t152 63.5l434 -404q10 -20 10 -55 q0 -59 -28 -112l-531 -439q-98 2 -153.5 53.5t-55.5 131.5z" />
<glyph unicode="&#xbc;" horiz-adv-x="2000" d="M162 1268q0 31 71.5 87t159.5 101t127 45t87 -25.5t81 -63.5t33 -66q0 -35 -41 -172q-45 -166 -55 -216q-12 -61 -27 -198q-12 -102 -22.5 -141t-40.5 -39q-39 0 -89.5 23.5t-86 56t-35.5 55.5q2 43 60 219t116 297l-23 12q-121 -139 -182 -139q-25 0 -57.5 26.5 t-54 65.5t-21.5 72zM492 66q0 31 33.5 94t119.5 209q133 217 201 350q84 162 192 391q109 227 165.5 330.5t88.5 103.5q33 0 68 -30.5t58.5 -71.5t23.5 -70q0 -41 -52.5 -147.5t-172.5 -327.5l-142 -262q-68 -131 -121 -238q-127 -252 -194.5 -368.5t-100.5 -116.5 t-71.5 27.5t-67 64.5t-28.5 62zM1225 412q0 43 82 171t184 233.5t170 105.5q72 0 110.5 -41t30.5 -113q-246 -178 -379 -367q61 -4 95 -4q100 0 174 15q8 35 10 61q6 55 17.5 86t37.5 31q33 0 71 -18.5t64.5 -45t26.5 -49.5q0 -59 -20.5 -177t-49 -209t-53.5 -91 q-29 0 -67.5 21.5t-67.5 51t-29 50.5q0 12 15 65l10 43q-86 -18 -187 -18q-70 0 -104 10q-49 23 -95 81t-46 108z" />
<glyph unicode="&#xbd;" horiz-adv-x="2099" d="M162 1268q0 31 71.5 87t159.5 101t127 45t87 -25.5t81 -63.5t33 -66q0 -35 -41 -172q-45 -166 -55 -216q-12 -61 -27 -198q-12 -102 -22.5 -141t-40.5 -39q-39 0 -89.5 23.5t-86 56t-35.5 55.5q2 43 60 219t116 297l-23 12q-121 -139 -182 -139q-25 0 -57.5 26.5 t-54 65.5t-21.5 72zM492 66q0 31 33.5 94t119.5 209q133 217 201 350q84 162 192 391q109 227 165.5 330.5t88.5 103.5q33 0 68 -30.5t58.5 -71.5t23.5 -70q0 -41 -52.5 -147.5t-172.5 -327.5l-142 -262q-68 -131 -121 -238q-127 -252 -194.5 -368.5t-100.5 -116.5 t-71.5 27.5t-67 64.5t-28.5 62zM1253 223q0 35 43 73t142 103q129 88 208.5 157t120.5 157q-100 -20 -157.5 -42t-128.5 -71q-55 10 -92 47t-37 88q0 82 116.5 134.5t284.5 52.5q53 0 106.5 -32t87 -83t33.5 -105q0 -106 -123.5 -226t-375.5 -263l10 -16q84 35 202.5 65.5 t164.5 30.5q43 0 73.5 -38t30.5 -87q0 -53 -37 -96l-113 -21q-102 -18 -210.5 -34.5t-169.5 -16.5q-39 0 -81 37t-70 90t-28 96z" />
<glyph unicode="&#xbe;" horiz-adv-x="2115" d="M76 745q0 53 55 87t148 34q39 0 77 -6q6 -45 29 -117q72 20 130 59.5t81 90.5q-29 14 -57.5 17t-71.5 3q-6 0 -38 2.5t-52 12.5q-35 18 -55.5 62t-20.5 89q0 20 25.5 34.5t83.5 33.5q98 33 161.5 69.5t98.5 106.5q-178 -18 -334 -98q-51 20 -78 54t-27 73q0 66 118 107.5 t274 41.5q70 0 132 -34.5t102 -82t40 -79.5q0 -72 -90 -140.5t-248 -111.5l-4 -17q92 -2 170 -26.5t122 -60.5t44 -70q0 -68 -80 -138.5t-201 -115.5t-233 -45q-74 0 -143.5 26.5t-113.5 65.5t-44 73zM614 66q0 31 34 94t120 209q133 217 201 350q84 162 192 391 q109 227 165 330.5t89 103.5t68 -30.5t58.5 -71.5t23.5 -70q0 -41 -52.5 -147.5t-173.5 -327.5l-141 -262q-68 -131 -121 -238q-127 -252 -194.5 -368.5t-100.5 -116.5t-71.5 27.5t-67.5 64.5t-29 62zM1339 412q0 43 82 171t184.5 233.5t170.5 105.5q72 0 110.5 -41 t30.5 -113q-246 -178 -379 -367q61 -4 94 -4q100 0 174 15q8 35 11 61q6 55 17 86t38 31q33 0 70.5 -18.5t64.5 -45t27 -49.5q0 -59 -20.5 -177t-49.5 -209t-53 -91q-29 0 -68 21.5t-67.5 51t-28.5 50.5q0 12 14 65l11 43q-86 -18 -187 -18q-70 0 -104 10q-49 23 -95.5 81 t-46.5 108z" />
<glyph unicode="&#xbf;" horiz-adv-x="978" d="M-63 -287q0 92 46 166t111.5 128t171.5 124q106 72 162.5 119t79.5 104q-70 2 -118 -13t-130 -54q-37 29 -58.5 71.5t-21.5 79.5q0 72 75 119t210 47q66 0 132.5 -51t110.5 -125t44 -133q0 -76 -69 -141.5t-206 -155.5q-129 -86 -195.5 -145.5t-84.5 -128.5q33 -4 49 -5 q100 0 207.5 44t191.5 102q70 -15 114 -68t44 -119q0 -63 -83 -119.5t-206 -90t-238 -33.5q-82 0 -160.5 47t-128.5 113.5t-50 117.5zM309 950q0 37 48.5 80t113 73t109.5 30q35 0 72.5 -38t63 -91.5t25.5 -94.5q0 -35 -48 -73.5t-115.5 -65.5t-120.5 -27q-35 0 -70 36 t-56.5 86t-21.5 85z" />
<glyph unicode="&#xc0;" horiz-adv-x="1138" d="M-55 160l41 92q225 502 390 842t214 340q39 0 113.5 -29t135 -70t68.5 -73q14 -57 39 -239.5t39 -352.5l16 -160q2 -33 15.5 -165t13.5 -220q0 -115 -26 -123q-8 -2 -27 -2q-45 0 -111.5 21.5t-119 54.5t-60.5 63q-8 31 -8 258q-221 -27 -291 -32q-55 -162 -127 -355 q-55 -12 -102 -12q-82 0 -138.5 40t-74.5 122zM434 1847q25 80 84.5 124t134.5 44q74 0 144 -39l6 -96q2 -49 10 -147l64 -142q-11 -45 -47.5 -69.5t-90.5 -24.5q-27 0 -57 6q-61 70 -133 171.5t-115 172.5zM494 657q94 6 186 19q0 283 -8 438q-90 -213 -178 -457z" />
<glyph unicode="&#xc1;" horiz-adv-x="1138" d="M-55 160l41 92q225 502 390 842t214 340q39 0 113.5 -29t135 -70t68.5 -73q15 -58 39.5 -240t38.5 -352l16 -160q2 -33 15.5 -165t13.5 -220q0 -115 -26 -123q-8 -2 -27 -2q-45 0 -111.5 21.5t-119 54.5t-60.5 63q-8 31 -8 258q-221 -27 -291 -32q-55 -162 -127 -355 q-55 -12 -102 -12q-82 0 -138.5 40t-74.5 122zM494 657q94 6 186 19q0 283 -8 438q-90 -213 -178 -457zM608 1597q35 45 62.5 92.5t38.5 63.5q16 106 24 223q70 35 146 35q86 0 145 -45t61 -121q-131 -182 -303 -348q-11 -2 -34 -2q-53 0 -91.5 25.5t-48.5 76.5z" />
<glyph unicode="&#xc2;" horiz-adv-x="1138" d="M-55 160l41 92q225 502 390 842t214 340q39 0 113.5 -29t135 -70t68.5 -73q15 -58 39.5 -240t38.5 -352l16 -160q2 -33 15.5 -165t13.5 -220q0 -115 -26 -123q-8 -2 -27 -2q-45 0 -111.5 21.5t-119 54.5t-60.5 63q-8 31 -8 258q-221 -27 -291 -32q-55 -162 -127 -355 q-55 -12 -102 -12q-82 0 -138.5 40t-74.5 122zM248 1663l428 342q18 2 55 2q66 0 126.5 -15.5t100.5 -45.5l261 -338q-37 -109 -158 -109q-37 0 -72 8l-174 320q-76 -78 -137.5 -147.5t-149.5 -178.5q-49 -8 -69 -8q-90 0 -150.5 47t-60.5 123zM494 657q94 6 186 19 q0 283 -8 438q-90 -213 -178 -457z" />
<glyph unicode="&#xc3;" horiz-adv-x="1138" d="M-55 160l41 92q225 502 390 842t214 340q39 0 113.5 -29t135 -70t68.5 -73q15 -58 39.5 -240t38.5 -352l16 -160q2 -33 15.5 -165t13.5 -220q0 -115 -26 -123q-8 -2 -27 -2q-45 0 -111.5 21.5t-119 54.5t-60.5 63q-8 31 -8 258q-221 -27 -291 -32q-55 -162 -127 -355 q-55 -12 -102 -12q-82 0 -138.5 40t-74.5 122zM238 1649q72 86 183 177t179 91q84 0 177 -51t177 -127h13l133 164q10 2 30 2q66 0 111 -37t45 -96q-61 -96 -170.5 -183.5t-189.5 -87.5q-174 0 -336 166l-17 4l-151 -170q-8 -2 -25 -2q-68 0 -113.5 41t-45.5 109zM494 657 q94 6 186 19q0 283 -8 438q-90 -213 -178 -457z" />
<glyph unicode="&#xc4;" horiz-adv-x="1138" d="M-55 160l41 92q225 502 390 842t214 340q39 0 113.5 -29t135 -70t68.5 -73q15 -58 39.5 -240t38.5 -352l16 -160q2 -33 15.5 -165t13.5 -220q0 -115 -26 -123q-8 -2 -27 -2q-45 0 -111.5 21.5t-119 54.5t-60.5 63q-8 31 -8 258q-221 -27 -291 -32q-55 -162 -127 -355 q-55 -12 -102 -12q-82 0 -138.5 40t-74.5 122zM299 1677q0 53 27.5 106.5t68.5 76.5q27 10 62 10q70 0 141.5 -32t87.5 -79q4 -16 4 -28q0 -43 -27.5 -98.5t-68.5 -93.5t-80 -38q-37 0 -89 30t-89 72t-37 74zM494 657q94 6 186 19q0 283 -8 438q-90 -213 -178 -457z M791 1677q0 53 27.5 106.5t68.5 76.5q27 10 61 10q70 0 141.5 -32t88.5 -79q4 -16 4 -28q0 -43 -28 -98.5t-69 -93.5t-79 -38q-37 0 -89.5 30t-89 72t-36.5 74z" />
<glyph unicode="&#xc5;" horiz-adv-x="1138" d="M-55 160l41 92q225 502 390 842t214 340q39 0 113.5 -29t135 -70t68.5 -73q15 -58 39.5 -240t38.5 -352l16 -160q2 -33 15.5 -165t13.5 -220q0 -115 -26 -123q-8 -2 -27 -2q-45 0 -111.5 21.5t-119 54.5t-60.5 63q-8 31 -8 258q-221 -27 -291 -32q-55 -162 -127 -355 q-55 -12 -102 -12q-82 0 -138.5 40t-74.5 122zM444 1708q0 154 78 287q45 27 99 22q-4 16 -5 25q0 39 32 69.5t87 45.5q92 -8 169 -49.5t121 -97.5t44 -112q0 -82 -48 -176t-133 -157.5t-192 -63.5q-51 0 -110.5 34t-100.5 83t-41 90zM494 657q94 6 186 19q0 283 -8 438 q-90 -213 -178 -457zM657 1702q0 -18 5 -55q174 61 215 282q-64 37 -164 33q12 -20 12 -47q-33 -43 -50.5 -99.5t-17.5 -113.5z" />
<glyph unicode="&#xc6;" horiz-adv-x="1613" d="M-55 160l28 63q227 508 404.5 859.5t253.5 351.5q35 0 96 -7q197 -16 307 -16q240 0 498 43q39 -22 58.5 -62t19.5 -87q0 -41 -16.5 -82t-43.5 -68l-98 -6q-283 -14 -381 -25l-53 -280q248 16 373 61q41 -29 62.5 -71.5t21.5 -92.5q0 -43 -17.5 -80.5t-48.5 -60.5 l-145 -10l-265 -19l-59 -290q123 12 218 32.5t222 61.5q57 -27 89 -75t32 -105q0 -82 -63 -146q-115 -25 -253 -37t-265 -12q-37 0 -93.5 27.5t-101.5 63.5t-51 61q-2 6 -2 24q0 82 35 225q-178 -25 -320 -36q-55 -162 -127 -355q-55 -12 -102 -12q-82 0 -138.5 40 t-74.5 122zM494 657l241 23q2 27 2 82q0 152 -28 377q-119 -222 -215 -482z" />
<glyph unicode="&#xc7;" horiz-adv-x="1120" d="M39 379q2 219 74.5 471t219 428t353.5 176q109 0 202 -61.5t146 -151.5t53 -170q3 -84 -56.5 -128t-149.5 -44q-66 0 -131 25q2 37 2 104q0 76 -12.5 113t-47.5 37q-70 0 -142.5 -143.5t-122.5 -352.5t-54 -383q135 25 248.5 81t199.5 130q92 -23 142.5 -83t50.5 -134 q0 -45 -23 -94q-49 -49 -158.5 -104.5t-226.5 -84.5l-71 -119q53 20 110 21q104 0 176 -65.5t72 -170.5q0 -80 -50 -145.5t-144.5 -105t-221.5 -39.5q-113 0 -214 39.5t-171 121.5q-2 8 -2 23q0 43 28.5 70.5t76.5 21.5q51 -45 113.5 -68.5t121.5 -23.5q78 0 126 30.5 t48 77.5q0 43 -45 76q-47 -8 -96 -43l-23 -2q-53 0 -93 29t-44 76l92 184q-74 23 -157.5 89.5t-141 147t-57.5 144.5z" />
<glyph unicode="&#xc8;" horiz-adv-x="1132" d="M131 207q0 31 47 237q35 152 68 316q23 113 22 112q33 160 43 232l-86 -6q-39 20 -62.5 60t-23.5 87q0 82 64 146q281 4 488.5 12t359.5 31q39 -23 58 -63t19 -87q0 -41 -16 -82t-43 -67q-264 -4 -440 -21q-35 -125 -66 -278q205 16 346 49q41 -25 62.5 -65t21.5 -87 q0 -43 -17.5 -81t-47.5 -60q-39 -4 -76 -6t-72 -4l-264 -19l-37 -184l-20 -98q125 12 226 33.5t214 60.5q57 -27 89 -75t32 -105q0 -82 -64 -146q-127 -25 -284.5 -37t-292.5 -12q-37 0 -96.5 37t-105.5 86t-46 84zM393 1847q25 80 84.5 124t134.5 44q74 0 144 -39l6 -96 q2 -49 10 -147l64 -142q-11 -45 -47.5 -69.5t-90.5 -24.5q-27 0 -57 6q-61 70 -133 171.5t-115 172.5z" />
<glyph unicode="&#xc9;" horiz-adv-x="1132" d="M131 207q0 31 47 237q35 152 68 316q23 113 22 112q33 160 43 232l-86 -6q-39 20 -62.5 60t-23.5 87q0 82 64 146q281 4 488.5 12t359.5 31q39 -23 58 -63t19 -87q0 -41 -16 -82t-43 -67q-264 -4 -440 -21q-35 -125 -66 -278q205 16 346 49q41 -25 62.5 -65t21.5 -87 q0 -43 -17.5 -81t-47.5 -60q-39 -4 -76 -6t-72 -4l-264 -19l-37 -184l-20 -98q125 12 226 33.5t214 60.5q57 -27 89 -75t32 -105q0 -82 -64 -146q-127 -25 -284.5 -37t-292.5 -12q-37 0 -96.5 37t-105.5 86t-46 84zM567 1597q35 45 62.5 92.5t38.5 63.5q16 106 24 223 q70 35 146 35q86 0 145 -45t61 -121q-131 -182 -303 -348q-12 -2 -34 -2q-53 0 -91 25.5t-49 76.5z" />
<glyph unicode="&#xca;" horiz-adv-x="1132" d="M131 207q0 31 47 237q35 152 68 316q23 113 22 112q33 160 43 232l-86 -6q-39 20 -62.5 60t-23.5 87q0 82 64 146q281 4 488.5 12t359.5 31q39 -23 58 -63t19 -87q0 -41 -16 -82t-43 -67q-264 -4 -440 -21q-35 -125 -66 -278q205 16 346 49q41 -25 62.5 -65t21.5 -87 q0 -43 -17.5 -81t-47.5 -60q-39 -4 -76 -6t-72 -4l-264 -19l-37 -184l-20 -98q125 12 226 33.5t214 60.5q57 -27 89 -75t32 -105q0 -82 -64 -146q-127 -25 -284.5 -37t-292.5 -12q-37 0 -96.5 37t-105.5 86t-46 84zM207 1663l428 342q18 2 55 2q66 0 126.5 -15.5 t101.5 -45.5l260 -338q-37 -109 -158 -109q-37 0 -72 8l-174 320q-76 -78 -137.5 -147.5t-149.5 -178.5q-49 -8 -69 -8q-90 0 -150.5 47t-60.5 123z" />
<glyph unicode="&#xcb;" horiz-adv-x="1132" d="M131 207q0 31 47 237q35 152 68 316q23 113 22 112q33 160 43 232l-86 -6q-39 20 -62.5 60t-23.5 87q0 82 64 146q281 4 488.5 12t359.5 31q39 -23 58 -63t19 -87q0 -41 -16 -82t-43 -67q-264 -4 -440 -21q-35 -125 -66 -278q205 16 346 49q41 -25 62.5 -65t21.5 -87 q0 -43 -17.5 -81t-47.5 -60q-39 -4 -76 -6t-72 -4l-264 -19l-37 -184l-20 -98q125 12 226 33.5t214 60.5q57 -27 89 -75t32 -105q0 -82 -64 -146q-127 -25 -284.5 -37t-292.5 -12q-37 0 -96.5 37t-105.5 86t-46 84zM258 1677q0 53 27.5 106.5t68.5 76.5q27 10 62 10 q70 0 141.5 -32t87.5 -79q4 -16 4 -28q0 -43 -27.5 -98.5t-68.5 -93.5t-80 -38q-37 0 -89 30t-89 72t-37 74zM750 1677q0 53 27.5 106.5t68.5 76.5q27 10 61 10q70 0 141.5 -32t88.5 -79q4 -16 4 -28q0 -43 -28 -98.5t-68.5 -93.5t-79.5 -38q-37 0 -89.5 30t-89 72t-36.5 74 z" />
<glyph unicode="&#xcc;" horiz-adv-x="579" d="M37 193q-2 33 19.5 138t27.5 136q8 41 30.5 150.5t37.5 203.5l16 97q39 229 72.5 372.5t68.5 143.5q39 0 105.5 -35t117 -82t50.5 -82q0 -18 -39 -164q-72 -258 -107 -450q-20 -121 -43 -318q-20 -168 -35.5 -235.5t-48.5 -67.5q-47 0 -111.5 34t-112.5 81t-48 78z M106 1847q25 80 84.5 124t135.5 44q74 0 143 -39l6 -96q2 -49 10 -147l64 -142q-10 -45 -47 -69.5t-90 -24.5q-27 0 -58 6q-61 70 -132.5 171.5t-115.5 172.5z" />
<glyph unicode="&#xcd;" horiz-adv-x="579" d="M37 193q-2 33 19.5 138t27.5 136q8 41 30.5 150.5t37.5 203.5l16 97q39 229 72.5 372.5t68.5 143.5q39 0 105.5 -35t117 -82t50.5 -82q0 -18 -39 -164q-72 -258 -107 -450q-20 -121 -43 -318q-20 -168 -35.5 -235.5t-48.5 -67.5q-47 0 -111.5 34t-112.5 81t-48 78z M281 1597q35 45 62.5 92.5t37.5 63.5q16 106 25 223q69 35 145 35q86 0 145.5 -45t61.5 -121q-131 -182 -303 -348q-12 -2 -35 -2q-53 0 -91 25.5t-48 76.5z" />
<glyph unicode="&#xce;" horiz-adv-x="579" d="M-80 1663l428 342q18 2 55 2q66 0 126.5 -15.5t101.5 -45.5l260 -338q-37 -109 -158 -109q-37 0 -71 8l-175 320q-76 -78 -137 -147.5t-149 -178.5q-49 -8 -70 -8q-90 0 -150.5 47t-60.5 123zM37 193q-2 33 19.5 138t27.5 136q8 41 30.5 150.5t37.5 203.5l16 97 q39 229 72.5 372.5t68.5 143.5q39 0 105.5 -35t117 -82t50.5 -82q0 -18 -39 -164q-72 -258 -107 -450q-20 -121 -43 -318q-20 -168 -35.5 -235.5t-48.5 -67.5q-47 0 -111.5 34t-112.5 81t-48 78z" />
<glyph unicode="&#xcf;" horiz-adv-x="579" d="M-29 1677q0 53 28 106.5t69 76.5q27 10 61 10q70 0 141.5 -32t87.5 -79q4 -16 4 -28q0 -43 -27.5 -98.5t-68.5 -93.5t-80 -38q-36 0 -88.5 30t-89.5 72t-37 74zM37 193q-2 33 19.5 138t27.5 136q8 41 30.5 150.5t37.5 203.5l16 97q39 229 72.5 372.5t68.5 143.5 q39 0 105.5 -35t117 -82t50.5 -82q0 -18 -39 -164q-72 -258 -107 -450q-20 -121 -43 -318q-20 -168 -35.5 -235.5t-48.5 -67.5q-47 0 -111.5 34t-112.5 81t-48 78zM463 1677q0 53 27.5 106.5t68.5 76.5q27 10 62 10q70 0 141.5 -32t87.5 -79q4 -16 4 -28q0 -43 -27.5 -98.5 t-68.5 -93.5t-80 -38q-37 0 -89 30t-89 72t-37 74z" />
<glyph unicode="&#xd0;" horiz-adv-x="1222" d="M-31 725q0 76 60 135l184 -4l47 260l-84 4q-33 66 -33 131q0 61 31 113.5t90 89.5q248 -20 459 -122.5t334 -257t123 -324.5q0 -150 -131 -330t-318.5 -305t-341.5 -125q-51 0 -130 51t-138.5 117.5t-59.5 105.5q0 33 28 127t73 213l-117 -10q-35 18 -55.5 54t-20.5 77z M389 258q205 107 341 260.5t136 288.5q0 55 -45 111.5t-118.5 98.5t-155.5 56l-45 -207l151 27q39 -23 57.5 -57.5t18.5 -75.5t-16.5 -79t-44.5 -65l-222 7z" />
<glyph unicode="&#xd1;" horiz-adv-x="1267" d="M37 193q-2 33 19.5 138t27.5 136q8 41 30.5 150.5t37.5 203.5l16 97q39 229 72.5 372.5t68.5 143.5t95.5 -30t110.5 -73t65 -82q96 -258 235 -696l25 268l16 97q39 229 73 372.5t68 143.5q39 0 105.5 -35t117 -82t50.5 -82q0 -18 -39 -164q-72 -258 -107 -450 q-20 -121 -43 -318q-20 -168 -35.5 -235.5t-48.5 -67.5q-59 0 -138 50t-136 124q-31 41 -86 160t-107.5 267.5t-78.5 277.5l-15 -258q-20 -121 -43 -318q-20 -168 -35.5 -235.5t-48.5 -67.5q-47 0 -111.5 34t-112.5 81t-48 78zM256 1649q72 86 183.5 177t178.5 91 q84 0 177.5 -51t177.5 -127h12l133 164q10 2 31 2q66 0 111 -37t45 -96q-61 -96 -171 -183.5t-190 -87.5q-174 0 -336 166l-16 4l-152 -170q-8 -2 -24 -2q-68 0 -114 41t-46 109z" />
<glyph unicode="&#xd2;" horiz-adv-x="1169" d="M31 391q0 117 69.5 402.5t128.5 420.5q68 20 127 21q41 0 66 -8q-4 76 37 139.5t116 87.5q150 0 284 -71.5t215 -189.5t81 -245q0 -199 -106.5 -425t-269.5 -379.5t-320 -153.5q-82 0 -183.5 68.5t-173 163.5t-71.5 169zM365 270q196 72 329 276t189 447 q-57 41 -148.5 67.5t-195.5 29.5q4 -20 8 -62q-188 -352 -182 -758zM424 1847q25 80 84 124t135 44q74 0 143 -39l7 -96q2 -49 10 -147l63 -142q-10 -45 -47 -69.5t-90 -24.5q-27 0 -57 6q-61 70 -133 171.5t-115 172.5z" />
<glyph unicode="&#xd3;" horiz-adv-x="1169" d="M31 391q0 117 69.5 402.5t128.5 420.5q68 20 127 21q41 0 66 -8q-4 76 37 139.5t116 87.5q150 0 284 -71.5t215 -189.5t81 -245q0 -199 -106.5 -425t-269.5 -379.5t-320 -153.5q-82 0 -183.5 68.5t-173 163.5t-71.5 169zM365 270q196 72 329 276t189 447 q-57 41 -148.5 67.5t-195.5 29.5q4 -20 8 -62q-188 -352 -182 -758zM598 1597q35 45 62.5 92.5t37.5 63.5q16 106 25 223q70 35 145 35q86 0 145.5 -45t61.5 -121q-131 -182 -303 -348q-12 -2 -35 -2q-53 0 -91 25.5t-48 76.5z" />
<glyph unicode="&#xd4;" horiz-adv-x="1169" d="M31 391q0 117 69.5 402.5t128.5 420.5q68 20 127 21q41 0 66 -8q-4 76 37 139.5t116 87.5q150 0 284 -71.5t215 -189.5t81 -245q0 -199 -106.5 -425t-269.5 -379.5t-320 -153.5q-82 0 -183.5 68.5t-173 163.5t-71.5 169zM238 1663l428 342q18 2 55 2q66 0 126 -15.5 t101 -45.5l260 -338q-37 -109 -157 -109q-37 0 -72 8l-174 320q-76 -78 -137.5 -147.5t-149.5 -178.5q-49 -8 -69 -8q-90 0 -150.5 47t-60.5 123zM365 270q196 72 329 276t189 447q-57 41 -148.5 67.5t-195.5 29.5q4 -20 8 -62q-188 -352 -182 -758z" />
<glyph unicode="&#xd5;" horiz-adv-x="1169" d="M31 391q0 117 69.5 402.5t128.5 420.5q68 20 127 21q41 0 66 -8q-4 76 37 139.5t116 87.5q150 0 284 -71.5t215 -189.5t81 -245q0 -199 -106.5 -425t-269.5 -379.5t-320 -153.5q-82 0 -183.5 68.5t-173 163.5t-71.5 169zM227 1649q72 86 183.5 177t179.5 91q84 0 177 -51 t177 -127h12l134 164q10 2 30 2q66 0 111 -37t45 -96q-61 -96 -171 -183.5t-190 -87.5q-174 0 -335 166l-17 4l-151 -170q-8 -2 -25 -2q-68 0 -114 41t-46 109zM365 270q196 72 329 276t189 447q-57 41 -148.5 67.5t-195.5 29.5q4 -20 8 -62q-188 -352 -182 -758z" />
<glyph unicode="&#xd6;" horiz-adv-x="1169" d="M31 391q0 117 69.5 402.5t128.5 420.5q68 20 127 21q41 0 66 -8q-4 76 37 139.5t116 87.5q150 0 284 -71.5t215 -189.5t81 -245q0 -199 -106.5 -425t-269.5 -379.5t-320 -153.5q-82 0 -183.5 68.5t-173 163.5t-71.5 169zM289 1677q0 53 27.5 106.5t68.5 76.5q27 10 61 10 q70 0 141.5 -32t88.5 -79q4 -16 4 -28q0 -43 -27.5 -98.5t-68.5 -93.5t-80 -38q-37 0 -89.5 30t-89 72t-36.5 74zM365 270q196 72 329 276t189 447q-57 41 -148.5 67.5t-195.5 29.5q4 -20 8 -62q-188 -352 -182 -758zM780 1677q0 53 28 106.5t69 76.5q27 10 61 10 q70 0 141.5 -32t87.5 -79q4 -16 4 -28q0 -43 -27.5 -98.5t-68.5 -93.5t-80 -38q-37 0 -89 30t-89 72t-37 74z" />
<glyph unicode="&#xd7;" horiz-adv-x="944" d="M37 420q0 33 12 69q123 70 248 162q-80 100 -131 180t-51 101q0 29 30.5 60.5t75.5 54t84 22.5q35 0 59.5 -38t61.5 -126q33 -82 47 -108q145 135 248 276q104 4 165.5 -41t61.5 -129q0 -23 -2 -35q-207 -164 -321 -264q31 -27 112 -94q57 -45 80 -67.5t23 -41.5 q0 -20 -26 -53t-61.5 -57.5t-64.5 -24.5q-49 0 -229 195q-102 -92 -213 -199q-94 -8 -151.5 36t-57.5 122z" />
<glyph unicode="&#xd8;" horiz-adv-x="1280" d="M-72 233q0 23 11 39q18 31 174 166q14 145 78.5 400.5t117.5 375.5q68 20 127 21q41 0 66 -8q-4 76 37 139.5t116 87.5q111 0 216.5 -41t187.5 -113q139 133 194 134q8 0 17 -4q41 -27 72.5 -103t31.5 -137q0 -33 -10 -49q-20 -37 -133 -135q4 -41 4 -58 q0 -199 -106.5 -425t-269.5 -379.5t-320 -153.5q-59 0 -132 39t-141 100q-172 -147 -203 -129q-49 31 -92 104.5t-43 128.5zM444 270q113 41 222.5 141.5t191.5 229.5t115 250l-524 -492q-4 -43 -5 -129zM487 664q215 176 404 368q-121 52 -273 58q4 -20 9 -62 q-90 -166 -140 -364z" />
<glyph unicode="&#xd9;" horiz-adv-x="1202" d="M53 346q0 143 49.5 460.5t116.5 551.5q68 33 141 33q78 0 135.5 -42t77.5 -118q-59 -137 -115.5 -387t-56.5 -408q0 -154 60 -153q88 0 172 113.5t137 294.5t53 368q0 139 -32 262q102 113 217 113q80 0 149 -56q25 -149 25 -288q0 -305 -98.5 -557t-256 -397.5 t-321.5 -145.5q-82 0 -189.5 60.5t-185.5 145.5t-78 150zM393 1847q25 80 84.5 124t134.5 44q74 0 144 -39l6 -96q2 -49 10 -147l64 -142q-11 -45 -47.5 -69.5t-90.5 -24.5q-27 0 -57 6q-61 70 -133 171.5t-115 172.5z" />
<glyph unicode="&#xda;" horiz-adv-x="1202" d="M53 346q0 143 49.5 460.5t116.5 551.5q68 33 141 33q78 0 135.5 -42t77.5 -118q-59 -137 -115.5 -387t-56.5 -408q0 -154 60 -153q88 0 172 113.5t137 294.5t53 368q0 139 -32 262q102 113 217 113q80 0 149 -56q25 -149 25 -288q0 -305 -98.5 -557t-256 -397.5 t-321.5 -145.5q-82 0 -189.5 60.5t-185.5 145.5t-78 150zM567 1597q35 45 62.5 92.5t38.5 63.5q16 106 24 223q70 35 146 35q86 0 145 -45t61 -121q-131 -182 -303 -348q-12 -2 -34 -2q-53 0 -91 25.5t-49 76.5z" />
<glyph unicode="&#xdb;" horiz-adv-x="1202" d="M53 346q0 143 49.5 460.5t116.5 551.5q68 33 141 33q78 0 135.5 -42t77.5 -118q-59 -137 -115.5 -387t-56.5 -408q0 -154 60 -153q88 0 172 113.5t137 294.5t53 368q0 139 -32 262q102 113 217 113q80 0 149 -56q25 -149 25 -288q0 -305 -98.5 -557t-256 -397.5 t-321.5 -145.5q-82 0 -189.5 60.5t-185.5 145.5t-78 150zM207 1663l428 342q18 2 55 2q66 0 126.5 -15.5t101.5 -45.5l260 -338q-37 -109 -158 -109q-37 0 -72 8l-174 320q-76 -78 -137.5 -147.5t-149.5 -178.5q-49 -8 -69 -8q-90 0 -150.5 47t-60.5 123z" />
<glyph unicode="&#xdc;" horiz-adv-x="1202" d="M53 346q0 143 49.5 460.5t116.5 551.5q68 33 141 33q78 0 135.5 -42t77.5 -118q-59 -137 -115.5 -387t-56.5 -408q0 -154 60 -153q88 0 172 113.5t137 294.5t53 368q0 139 -32 262q102 113 217 113q80 0 149 -56q25 -149 25 -288q0 -305 -98.5 -557t-256 -397.5 t-321.5 -145.5q-82 0 -189.5 60.5t-185.5 145.5t-78 150zM258 1677q0 53 27.5 106.5t68.5 76.5q27 10 62 10q70 0 141.5 -32t87.5 -79q4 -16 4 -28q0 -43 -27.5 -98.5t-68.5 -93.5t-80 -38q-37 0 -89 30t-89 72t-37 74zM750 1677q0 53 27.5 106.5t68.5 76.5q27 10 61 10 q70 0 141.5 -32t88.5 -79q4 -16 4 -28q0 -43 -28 -98.5t-68.5 -93.5t-79.5 -38q-37 0 -89.5 30t-89 72t-36.5 74z" />
<glyph unicode="&#xdd;" horiz-adv-x="1173" d="M119 1192q0 35 46 82t110.5 81t115.5 34q39 0 61.5 -69t57.5 -239q33 -178 65 -299q195 332 328 629q68 18 121 19q106 0 164.5 -63.5t62.5 -172.5l-129 -166q-20 -27 -157.5 -203t-288.5 -352l-23 -186q-16 -158 -31.5 -222.5t-48.5 -64.5q-47 0 -111.5 34t-112.5 81 t-48 78q-2 37 13.5 105.5t54.5 227.5l14 56q-14 33 -109 225q-78 154 -116.5 245t-38.5 140zM549 1597q35 45 62.5 92.5t37.5 63.5q16 106 25 223q69 35 145 35q86 0 145.5 -45t61.5 -121q-131 -182 -303 -348q-12 -2 -35 -2q-53 0 -91 25.5t-48 76.5z" />
<glyph unicode="&#xde;" horiz-adv-x="1128" d="M37 193q-2 33 19.5 138t27.5 136q8 41 30.5 150.5t37.5 203.5l16 97q39 229 72.5 372.5t68.5 143.5q39 0 105.5 -35t117 -82t50.5 -82q0 -16 -25 -111q174 -2 295 -54t180.5 -137t59.5 -185q0 -123 -83 -235t-243 -180.5t-377 -64.5q-18 -145 -33.5 -206.5t-46.5 -61.5 q-47 0 -111.5 34t-112.5 81t-48 78zM420 520q117 2 198.5 34t122.5 78t41 95q0 57 -56 96t-157 39q-39 0 -82 -6q-43 -172 -67 -336z" />
<glyph unicode="&#xdf;" horiz-adv-x="1267" d="M61 307q31 295 98.5 593t119.5 400q66 133 202.5 210t306.5 77q113 0 220.5 -46t176 -120.5t68.5 -152.5q0 -123 -84 -227.5t-247 -198.5q137 -63 206.5 -140t69.5 -176q0 -123 -66.5 -245.5t-180 -201.5t-242.5 -79q-102 0 -164 57.5t-62 137.5q0 31 9 55 q147 59 254.5 152.5t107.5 172.5q0 39 -38 75t-109 83q-63 41 -97.5 71t-34.5 60q0 27 25 52.5t80 68.5q100 78 159.5 149.5t67.5 180.5q-41 8 -59 8q-106 0 -188 -89t-134.5 -224.5t-76.5 -276.5q-12 -63 -33 -231q-27 -201 -44.5 -294t-37.5 -93q-47 0 -113.5 34.5 t-114 80.5t-45.5 77z" />
<glyph unicode="&#xe0;" d="M29 342q0 182 75.5 372.5t212 315.5t308.5 125q61 0 124.5 -55.5t81.5 -112.5q10 45 30 79t42 34q53 0 117.5 -38t110 -88t45.5 -79q-2 -39 -32 -129t-95 -274q-39 -100 -70 -191q125 61 211 131q90 -31 134 -85t44 -124q0 -49 -69.5 -101t-166 -87t-163.5 -35 q-47 0 -107.5 35t-104.5 82t-44 73q0 20 17.5 55.5t37.5 72t27 49.5l-52 28q-109 -178 -208 -286.5t-195 -108.5q-66 0 -138.5 57.5t-122.5 139.5t-50 145zM350 285q166 102 289 252.5t168 332.5q-55 25 -105 25q-96 0 -171.5 -86t-120.5 -225.5t-60 -298.5zM461 1561 q25 80 84 124t135 44q74 0 143 -39l6 -97q2 -49 11 -147l63 -141q-10 -45 -47 -70t-90 -25q-27 0 -57 7q-61 70 -133 171t-115 173z" />
<glyph unicode="&#xe1;" d="M29 342q0 182 75.5 372.5t212 315.5t308.5 125q61 0 124.5 -55.5t81.5 -112.5q10 45 30 79t42 34q53 0 117.5 -38t110 -88t45.5 -79q-2 -39 -32 -129t-95 -274q-39 -100 -70 -191q125 61 211 131q90 -31 134 -85t44 -124q0 -49 -69.5 -101t-166 -87t-163.5 -35 q-47 0 -107.5 35t-104.5 82t-44 73q0 20 17.5 55.5t37.5 72t27 49.5l-52 28q-109 -178 -208 -286.5t-195 -108.5q-66 0 -138.5 57.5t-122.5 139.5t-50 145zM350 285q166 102 289 252.5t168 332.5q-55 25 -105 25q-96 0 -171.5 -86t-120.5 -225.5t-60 -298.5zM635 1311 q35 45 62.5 92t37.5 63q16 106 25 224q69 34 145 34q86 0 145.5 -45t61.5 -120q-131 -182 -303 -349q-12 -2 -35 -2q-53 0 -91 26t-48 77z" />
<glyph unicode="&#xe2;" d="M29 342q0 182 75.5 372.5t212 315.5t308.5 125q61 0 124.5 -55.5t81.5 -112.5q10 45 30 79t42 34q53 0 117.5 -38t110 -88t45.5 -79q-2 -39 -32 -129t-95 -274q-39 -100 -70 -191q125 61 211 131q90 -31 134 -85t44 -124q0 -49 -69.5 -101t-166 -87t-163.5 -35 q-47 0 -107.5 35t-104.5 82t-44 73q0 20 17.5 55.5t37.5 72t27 49.5l-52 28q-109 -178 -208 -286.5t-195 -108.5q-66 0 -138.5 57.5t-122.5 139.5t-50 145zM274 1376l428 342q18 2 56 2q66 0 126 -15t101 -46l260 -338q-37 -109 -158 -109q-37 0 -71 9l-174 319 q-76 -78 -137.5 -147.5t-149.5 -178.5q-49 -8 -70 -8q-90 0 -150.5 47t-60.5 123zM350 285q166 102 289 252.5t168 332.5q-55 25 -105 25q-96 0 -171.5 -86t-120.5 -225.5t-60 -298.5z" />
<glyph unicode="&#xe3;" d="M29 342q0 182 75.5 372.5t212 315.5t308.5 125q61 0 124.5 -55.5t81.5 -112.5q10 45 30 79t42 34q53 0 117.5 -38t110 -88t45.5 -79q-2 -39 -32 -129t-95 -274q-39 -100 -70 -191q125 61 211 131q90 -31 134 -85t44 -124q0 -49 -69.5 -101t-166 -87t-163.5 -35 q-47 0 -107.5 35t-104.5 82t-44 73q0 20 17.5 55.5t37.5 72t27 49.5l-52 28q-109 -178 -208 -286.5t-195 -108.5q-66 0 -138.5 57.5t-122.5 139.5t-50 145zM264 1362q72 86 183.5 177t179.5 91q84 0 177 -51t177 -127h12l133 164q10 2 31 2q66 0 111 -37t45 -96 q-61 -96 -171 -183.5t-190 -87.5q-174 0 -336 166l-16 4l-151 -170q-8 -2 -25 -2q-68 0 -114 41t-46 109zM350 285q166 102 289 252.5t168 332.5q-55 25 -105 25q-96 0 -171.5 -86t-120.5 -225.5t-60 -298.5z" />
<glyph unicode="&#xe4;" d="M29 342q0 182 75.5 372.5t212 315.5t308.5 125q61 0 124.5 -55.5t81.5 -112.5q10 45 30 79t42 34q53 0 117.5 -38t110 -88t45.5 -79q-2 -39 -32 -129t-95 -274q-39 -100 -70 -191q125 61 211 131q90 -31 134 -85t44 -124q0 -49 -69.5 -101t-166 -87t-163.5 -35 q-47 0 -107.5 35t-104.5 82t-44 73q0 20 17.5 55.5t37.5 72t27 49.5l-52 28q-109 -178 -208 -286.5t-195 -108.5q-66 0 -138.5 57.5t-122.5 139.5t-50 145zM326 1391q0 53 27.5 106t68.5 76q27 10 61 10q70 0 141.5 -31.5t88.5 -78.5q4 -16 4 -29q0 -43 -27.5 -98.5 t-68.5 -93.5t-80 -38q-37 0 -89.5 30t-89 72t-36.5 75zM350 285q166 102 289 252.5t168 332.5q-55 25 -105 25q-96 0 -171.5 -86t-120.5 -225.5t-60 -298.5zM817 1391q0 53 27.5 106t68.5 76q27 10 62 10q70 0 141.5 -31.5t87.5 -78.5q4 -16 4 -29q0 -43 -27.5 -98.5 t-68.5 -93.5t-80 -38q-37 0 -89 30t-89 72t-37 75z" />
<glyph unicode="&#xe5;" d="M29 342q0 182 75.5 372.5t212 315.5t308.5 125q61 0 124.5 -55.5t81.5 -112.5q10 45 30 79t42 34q53 0 117.5 -38t110 -88t45.5 -79q-2 -39 -32 -129t-95 -274q-39 -100 -70 -191q125 61 211 131q90 -31 134 -85t44 -124q0 -49 -69.5 -101t-166 -87t-163.5 -35 q-47 0 -107.5 35t-104.5 82t-44 73q0 20 17.5 55.5t37.5 72t27 49.5l-52 28q-109 -178 -208 -286.5t-195 -108.5q-66 0 -138.5 57.5t-122.5 139.5t-50 145zM350 285q166 102 289 252.5t168 332.5q-55 25 -105 25q-96 0 -171.5 -86t-120.5 -225.5t-60 -298.5zM471 1421 q0 154 78 287q45 27 98 23q-4 16 -4 24q0 39 32 69.5t87 45.5q92 -8 169 -49t121 -97.5t44 -111.5q0 -82 -48.5 -176.5t-133.5 -158t-191 -63.5q-51 0 -110.5 34t-100.5 83t-41 90zM684 1415q0 -18 4 -55q174 61 215 282q-64 37 -164 33q12 -20 13 -47q-33 -43 -50.5 -99 t-17.5 -114z" />
<glyph unicode="&#xe6;" horiz-adv-x="1728" d="M29 342q0 182 75.5 372.5t212 315.5t308.5 125q152 0 288 -168q150 168 326 168q113 0 204 -49t142 -123t51 -143q0 -86 -76.5 -168t-216 -145.5t-319.5 -90.5q-2 -25 -2 -74q0 -59 4 -92q106 10 209.5 59.5t212.5 123.5q80 -25 121 -78t41 -127q0 -61 -75 -119.5 t-185.5 -93.5t-208.5 -35q-125 0 -233.5 90t-172.5 225q-84 -133 -194.5 -224t-200.5 -91q-66 0 -138.5 57.5t-122.5 139.5t-50 145zM350 285q166 102 289 252.5t168 332.5q-55 25 -105 25q-96 0 -171.5 -86t-120.5 -225.5t-60 -298.5zM1055 590q131 47 212 115.5t81 117.5 q0 57 -80 78q-78 -57 -132.5 -137t-80.5 -174z" />
<glyph unicode="&#xe7;" horiz-adv-x="1056" d="M8 -430q0 43 29 70.5t76 21.5q51 -45 113.5 -68.5t121.5 -23.5q78 0 126 30.5t48 77.5q0 43 -45 76q-47 -8 -96 -43l-23 -2q-53 0 -93 29t-44 76l109 221q-121 53 -212 161.5t-91 204.5q0 162 74.5 339.5t207.5 296t299 118.5q102 0 194.5 -37t148 -98.5t55.5 -126.5 q0 -63 -55.5 -113.5t-145.5 -50.5q-29 0 -60 6q-51 125 -112 176q-135 -88 -205 -245.5t-70 -321.5q0 -25 4 -74q193 8 357 199q100 -18 160.5 -75.5t60.5 -145.5q0 -59 -63.5 -113.5t-162 -89.5t-196.5 -43l-65 -111q53 20 110 21q104 0 176 -65.5t72 -170.5 q0 -80 -50 -145.5t-144.5 -105t-221.5 -39.5q-113 0 -214 39.5t-171 121.5q-2 8 -2 23z" />
<glyph unicode="&#xe8;" horiz-adv-x="1064" d="M27 401q0 150 70.5 328t195.5 302t282 124q113 0 204 -49t142.5 -123t51.5 -143q0 -86 -78 -169t-217 -145.5t-318 -89.5q-2 -25 -2 -74q0 -61 4 -92q102 10 203 55.5t219 127.5q80 -25 121 -78t41 -127q0 -61 -74.5 -119.5t-185.5 -93.5t-209 -35t-204.5 64.5 t-176 158.5t-69.5 178zM309 1561q25 80 84.5 124t134.5 44q74 0 144 -39l6 -97q2 -49 10 -147l64 -141q-11 -45 -47.5 -70t-90.5 -25q-27 0 -57 7q-61 70 -133 171t-115 173zM391 590q125 45 209 114.5t84 118.5q0 57 -80 78q-78 -57 -132 -137t-81 -174z" />
<glyph unicode="&#xe9;" horiz-adv-x="1064" d="M27 401q0 150 70.5 328t195.5 302t282 124q113 0 204 -49t142.5 -123t51.5 -143q0 -86 -78 -169t-217 -145.5t-318 -89.5q-2 -25 -2 -74q0 -61 4 -92q102 10 203 55.5t219 127.5q80 -25 121 -78t41 -127q0 -61 -74.5 -119.5t-185.5 -93.5t-209 -35t-204.5 64.5 t-176 158.5t-69.5 178zM391 590q125 45 209 114.5t84 118.5q0 57 -80 78q-78 -57 -132 -137t-81 -174zM483 1311q35 45 62.5 92t38.5 63q16 106 24 224q70 34 146 34q86 0 145 -45t62 -120q-131 -182 -304 -349q-12 -2 -34 -2q-53 0 -91 26t-49 77z" />
<glyph unicode="&#xea;" horiz-adv-x="1064" d="M27 401q0 150 70.5 328t195.5 302t282 124q113 0 204 -49t142.5 -123t51.5 -143q0 -86 -78 -169t-217 -145.5t-318 -89.5q-2 -25 -2 -74q0 -61 4 -92q102 10 203 55.5t219 127.5q80 -25 121 -78t41 -127q0 -61 -74.5 -119.5t-185.5 -93.5t-209 -35t-204.5 64.5 t-176 158.5t-69.5 178zM123 1376l428 342q18 2 55 2q66 0 126.5 -15t101.5 -46l260 -338q-37 -109 -158 -109q-37 0 -72 9l-174 319q-76 -78 -137 -147.5t-150 -178.5q-49 -8 -69 -8q-90 0 -150.5 47t-60.5 123zM391 590q125 45 209 114.5t84 118.5q0 57 -80 78 q-78 -57 -132 -137t-81 -174z" />
<glyph unicode="&#xeb;" horiz-adv-x="1064" d="M27 401q0 150 70.5 328t195.5 302t282 124q113 0 204 -49t142.5 -123t51.5 -143q0 -86 -78 -169t-217 -145.5t-318 -89.5q-2 -25 -2 -74q0 -61 4 -92q102 10 203 55.5t219 127.5q80 -25 121 -78t41 -127q0 -61 -74.5 -119.5t-185.5 -93.5t-209 -35t-204.5 64.5 t-176 158.5t-69.5 178zM174 1391q0 53 27.5 106t68.5 76q27 10 62 10q70 0 141.5 -31.5t87.5 -78.5q4 -16 4 -29q0 -43 -27.5 -98.5t-68.5 -93.5t-80 -38q-37 0 -89 30t-89 72t-37 75zM391 590q125 45 209 114.5t84 118.5q0 57 -80 78q-78 -57 -132 -137t-81 -174zM666 1391 q0 53 27.5 106t68.5 76q27 10 61 10q70 0 141.5 -31.5t88.5 -78.5q4 -16 4 -29q0 -43 -28 -98.5t-68.5 -93.5t-79.5 -38q-37 0 -89.5 30t-89 72t-36.5 75z" />
<glyph unicode="&#xec;" horiz-adv-x="788" d="M20 1561q25 80 84.5 124t135.5 44q74 0 143 -39l6 -97q2 -49 10 -147l64 -141q-10 -45 -47 -70t-90 -25q-27 0 -58 7q-61 70 -133 171t-115 173zM31 201q0 37 26.5 108.5t79.5 196.5q41 96 61.5 150.5t20.5 76.5q0 16 -19.5 35.5t-58.5 48.5q-45 35 -66.5 55.5 t-21.5 42.5q0 43 40 100.5t94.5 98.5t93.5 41q47 0 103 -41t96 -97t40 -91q0 -90 -46 -257t-118 -360q49 23 86 47.5t103 75.5q92 -31 135 -87t43 -122q0 -53 -68.5 -104t-167 -85t-174.5 -34q-53 0 -119.5 36t-114.5 84t-48 81z" />
<glyph unicode="&#xed;" horiz-adv-x="788" d="M31 201q0 37 26.5 108.5t79.5 196.5q41 96 61.5 150.5t20.5 76.5q0 16 -19.5 35.5t-58.5 48.5q-45 35 -66.5 55.5t-21.5 42.5q0 43 40 100.5t94.5 98.5t93.5 41q47 0 103 -41t96 -97t40 -91q0 -90 -46 -257t-118 -360q49 23 86 47.5t103 75.5q92 -31 135 -87t43 -122 q0 -53 -68.5 -104t-167 -85t-174.5 -34q-53 0 -119.5 36t-114.5 84t-48 81zM195 1311q35 45 62.5 92t37.5 63q16 106 24 224q70 34 146 34q86 0 145.5 -45t61.5 -120q-131 -182 -303 -349q-12 -2 -35 -2q-53 0 -91 26t-48 77z" />
<glyph unicode="&#xee;" horiz-adv-x="788" d="M-166 1376l428 342q18 2 55 2q66 0 126.5 -15t101.5 -46l260 -338q-37 -109 -158 -109q-37 0 -72 9l-174 319q-76 -78 -137 -147.5t-149 -178.5q-49 -8 -70 -8q-90 0 -150.5 47t-60.5 123zM31 201q0 37 26.5 108.5t79.5 196.5q41 96 61.5 150.5t20.5 76.5 q0 16 -19.5 35.5t-58.5 48.5q-45 35 -66.5 55.5t-21.5 42.5q0 43 40 100.5t94.5 98.5t93.5 41q47 0 103 -41t96 -97t40 -91q0 -90 -46 -257t-118 -360q49 23 86 47.5t103 75.5q92 -31 135 -87t43 -122q0 -53 -68.5 -104t-167 -85t-174.5 -34q-53 0 -119.5 36t-114.5 84 t-48 81z" />
<glyph unicode="&#xef;" horiz-adv-x="788" d="M-115 1391q0 53 28 106t69 76q27 10 61 10q70 0 141.5 -31.5t87.5 -78.5q4 -16 4 -29q0 -43 -27.5 -98.5t-68.5 -93.5t-80 -38q-37 0 -89 30t-89 72t-37 75zM31 201q0 37 26.5 108.5t79.5 196.5q41 96 61.5 150.5t20.5 76.5q0 16 -19.5 35.5t-58.5 48.5 q-45 35 -66.5 55.5t-21.5 42.5q0 43 40 100.5t94.5 98.5t93.5 41q47 0 103 -41t96 -97t40 -91q0 -90 -46 -257t-118 -360q49 23 86 47.5t103 75.5q92 -31 135 -87t43 -122q0 -53 -68.5 -104t-167 -85t-174.5 -34q-53 0 -119.5 36t-114.5 84t-48 81zM377 1391q0 53 27.5 106 t68.5 76q27 10 62 10q70 0 141.5 -31.5t87.5 -78.5q4 -16 4 -29q0 -43 -27.5 -98.5t-68.5 -93.5t-80 -38q-37 0 -89 30t-89 72t-37 75z" />
<glyph unicode="&#xf0;" horiz-adv-x="1110" d="M23 373q0 160 66.5 317.5t178 260t238.5 102.5q76 0 146.5 -34t125.5 -85q-6 74 -28.5 143.5t-59.5 122.5l-284 -98q-51 10 -81 48t-30 85q0 49 29 86l200 39q-16 12 -42.5 21.5t-35.5 11.5q-51 18 -73.5 30.5t-22.5 36.5q0 53 71 93t152 40q63 0 129 -42t117 -101 l172 66q62 -13 94.5 -54t32.5 -94q0 -45 -22 -84l-148 -37q49 -90 72.5 -197.5t23.5 -209.5q0 -199 -92 -394.5t-252.5 -320.5t-353.5 -125q-68 0 -144.5 62.5t-127.5 151.5t-51 159zM342 403q0 -63 14 -118q117 28 203 105t134 176.5t55 193.5q-66 33 -123 33 q-82 0 -146.5 -55.5t-100.5 -144.5t-36 -190z" />
<glyph unicode="&#xf1;" horiz-adv-x="1351" d="M31 201q0 37 26.5 108.5t79.5 196.5q41 96 61.5 150.5t20.5 76.5q0 16 -19.5 35.5t-58.5 48.5q-45 35 -66.5 55.5t-21.5 42.5q0 43 40 100.5t94.5 98.5t93.5 41q43 0 99 -39t98 -89t42 -77q0 -49 -11 -120.5t-30 -141.5q150 197 248 304.5t154 107.5q39 0 94 -39t95 -89 t40 -77q-2 -35 -28.5 -119t-75.5 -223q-66 -180 -84 -244q63 33 99 56.5t87 66.5q90 -31 134 -85t44 -124q0 -49 -69.5 -101t-166 -87t-163.5 -35q-47 0 -108.5 37t-105.5 85t-44 75q0 20 45 159q80 244 80 308q0 25 -13 24q-82 0 -305 -287q-8 -33 -17 -82t-13 -69 q-23 -121 -42.5 -185.5t-50.5 -64.5q-53 0 -119.5 36t-114.5 84t-48 81zM203 1362q72 86 183.5 177t178.5 91q84 0 177.5 -51t177.5 -127h12l133 164q10 2 31 2q66 0 110.5 -37t44.5 -96q-61 -96 -170.5 -183.5t-189.5 -87.5q-174 0 -336 166l-16 4l-152 -170q-8 -2 -25 -2 q-68 0 -113.5 41t-45.5 109z" />
<glyph unicode="&#xf2;" horiz-adv-x="1046" d="M25 362q0 125 30.5 257.5t94.5 257.5q59 33 118 32q27 0 49 -6q-8 25 -8 58q0 66 46 119t128 77q146 -16 265.5 -87t187.5 -169t68 -196q0 -147 -76 -313.5t-211 -279t-301 -112.5q-82 0 -174 60.5t-154.5 147.5t-62.5 154zM311 1561q25 80 84.5 124t134.5 44 q74 0 144 -39l6 -97q2 -49 10 -147l64 -141q-11 -45 -47.5 -70t-90.5 -25q-27 0 -57 7q-61 70 -133 171t-115 173zM334 344q0 -61 8 -111q170 58 264 197t125 332q-92 66 -250 65q-39 0 -59 -2q23 -41 22 -92q-53 -84 -81.5 -185.5t-28.5 -203.5z" />
<glyph unicode="&#xf3;" horiz-adv-x="1046" d="M25 362q0 125 30.5 257.5t94.5 257.5q59 33 118 32q27 0 49 -6q-8 25 -8 58q0 66 46 119t128 77q146 -16 265.5 -87t187.5 -169t68 -196q0 -147 -76 -313.5t-211 -279t-301 -112.5q-82 0 -174 60.5t-154.5 147.5t-62.5 154zM334 344q0 -61 8 -111q170 58 264 197t125 332 q-92 66 -250 65q-39 0 -59 -2q23 -41 22 -92q-53 -84 -81.5 -185.5t-28.5 -203.5zM485 1311q35 45 62.5 92t38.5 63q16 106 24 224q70 35 146 34q86 0 145.5 -45t61.5 -120q-131 -182 -304 -349q-11 -2 -34 -2q-53 0 -91 26t-49 77z" />
<glyph unicode="&#xf4;" horiz-adv-x="1046" d="M25 362q0 125 30.5 257.5t94.5 257.5q59 33 118 32q27 0 49 -6q-8 25 -8 58q0 66 46 119t128 77q146 -16 265.5 -87t187.5 -169t68 -196q0 -147 -76 -313.5t-211 -279t-301 -112.5q-82 0 -174 60.5t-154.5 147.5t-62.5 154zM125 1376l428 342q18 2 55 2q66 0 126.5 -15 t101.5 -46l260 -338q-37 -109 -158 -109q-37 0 -72 9l-174 319q-76 -78 -137 -147.5t-149 -178.5q-49 -8 -70 -8q-90 0 -150.5 47t-60.5 123zM334 344q0 -61 8 -111q170 58 264 197t125 332q-92 66 -250 65q-39 0 -59 -2q23 -41 22 -92q-53 -84 -81.5 -185.5t-28.5 -203.5z " />
<glyph unicode="&#xf5;" horiz-adv-x="1046" d="M25 362q0 125 30.5 257.5t94.5 257.5q59 33 118 32q27 0 49 -6q-8 25 -8 58q0 66 46 119t128 77q146 -16 265.5 -87t187.5 -169t68 -196q0 -147 -76 -313.5t-211 -279t-301 -112.5q-82 0 -174 60.5t-154.5 147.5t-62.5 154zM115 1362q72 86 183.5 177t178.5 91 q84 0 177.5 -51t176.5 -127h13l133 164q11 2 31 2q66 0 110.5 -37t44.5 -96q-61 -96 -170.5 -183.5t-189.5 -87.5q-174 0 -336 166l-16 4l-152 -170q-8 -2 -25 -2q-68 0 -113.5 41t-45.5 109zM334 344q0 -61 8 -111q170 58 264 197t125 332q-92 66 -250 65q-39 0 -59 -2 q23 -41 22 -92q-53 -84 -81.5 -185.5t-28.5 -203.5z" />
<glyph unicode="&#xf6;" horiz-adv-x="1046" d="M25 362q0 125 30.5 257.5t94.5 257.5q59 33 118 32q27 0 49 -6q-8 25 -8 58q0 66 46 119t128 77q146 -16 265.5 -87t187.5 -169t68 -196q0 -147 -76 -313.5t-211 -279t-301 -112.5q-82 0 -174 60.5t-154.5 147.5t-62.5 154zM176 1391q0 53 27.5 106t68.5 76q27 10 62 10 q70 0 141.5 -31.5t87.5 -78.5q4 -16 4 -29q0 -43 -27.5 -98.5t-68.5 -93.5t-80 -38q-37 0 -89 30t-89 72t-37 75zM334 344q0 -61 8 -111q170 58 264 197t125 332q-92 66 -250 65q-39 0 -59 -2q23 -41 22 -92q-53 -84 -81.5 -185.5t-28.5 -203.5zM668 1391q0 53 27.5 106 t68.5 76q27 10 61 10q70 0 141.5 -31.5t88.5 -78.5q4 -16 4 -29q0 -43 -27.5 -98.5t-68.5 -93.5t-80 -38q-37 0 -89.5 30t-89 72t-36.5 75z" />
<glyph unicode="&#xf7;" horiz-adv-x="1157" d="M33 662q0 82 61 137q461 6 938 55q39 -23 58.5 -60.5t19.5 -82.5q0 -41 -16.5 -79t-42.5 -65l-555 -30l-375 -23q-41 21 -64.5 60.5t-23.5 87.5zM293 317q0 31 46 66t110.5 58.5t113.5 23.5q35 0 68 -33t53.5 -77t20.5 -74q0 -35 -46.5 -73t-108 -64.5t-104.5 -26.5 q-32 0 -68 33.5t-60.5 82t-24.5 84.5zM436 1098q0 31 46 65.5t110.5 58t114.5 23.5q35 0 67.5 -32.5t53 -76.5t20.5 -75q0 -35 -46 -73t-107.5 -64.5t-104.5 -26.5q-33 0 -69 34t-60.5 82t-24.5 85z" />
<glyph unicode="&#xf8;" horiz-adv-x="1177" d="M-10 238q0 35 121 133q4 262 125 506q59 33 118 32q27 0 49 -6q-8 25 -8 58q0 66 46 119t128 77q182 -23 312 -127q51 57 98 91t76 34q8 0 16 -4q41 -29 73 -102.5t32 -130.5q0 -29 -9 -44q-25 -37 -88 -94q10 -37 11 -75q0 -147 -76 -313.5t-211 -279t-301 -112.5 q-92 0 -215 96q-55 -47 -89 -71.5t-53 -24.5q-27 0 -63.5 42t-64 99.5t-27.5 96.5zM420 317q0 -41 8 -84q143 50 260 182t172 292q-291 -272 -440 -390zM440 532q-12 -10 115 103q72 61 193 170q-83 22 -177 22q-43 0 -63 -2q23 -41 22 -92q-47 -72 -90 -201z" />
<glyph unicode="&#xf9;" horiz-adv-x="1392" d="M53 915q0 43 40 100.5t94.5 98.5t93.5 41q43 0 99 -39t98 -89t42 -77q0 -127 -43 -305t-110 -354q135 113 241.5 250t149.5 245q4 133 31.5 223.5t64.5 90.5q53 0 117.5 -38t109.5 -88t45 -79q-2 -43 -38.5 -161t-102.5 -302q-39 -115 -45 -131q59 27 107.5 56.5 t101.5 74.5q90 -31 134 -85t44 -124q0 -49 -69.5 -101t-166 -87t-163.5 -35q-43 0 -102.5 36t-105.5 82t-46 68q0 23 15.5 55.5t34.5 70.5t30 55l-52 28q-113 -207 -193.5 -301t-182.5 -94q-54 0 -116.5 40t-105.5 92t-43 85t19.5 94.5t41 123t28.5 77.5q27 72 48 135.5 t21 85.5q0 16 -19.5 35.5t-58.5 48.5q-45 35 -66.5 55.5t-21.5 42.5zM379 1561q25 80 84 124t135 44q74 0 143 -39l7 -97q2 -49 10 -147l63 -141q-10 -45 -47 -70t-90 -25q-27 0 -57 7q-61 70 -133 171t-115 173z" />
<glyph unicode="&#xfa;" horiz-adv-x="1392" d="M53 915q0 43 40 100.5t94.5 98.5t93.5 41q43 0 99 -39t98 -89t42 -77q0 -127 -43 -305t-110 -354q135 113 241.5 250t149.5 245q4 133 31.5 223.5t64.5 90.5q53 0 117.5 -38t109.5 -88t45 -79q-2 -43 -38.5 -161t-102.5 -302q-39 -115 -45 -131q59 27 107.5 56.5 t101.5 74.5q90 -31 134 -85t44 -124q0 -49 -69.5 -101t-166 -87t-163.5 -35q-43 0 -102.5 36t-105.5 82t-46 68q0 23 15.5 55.5t34.5 70.5t30 55l-52 28q-113 -207 -193.5 -301t-182.5 -94q-54 0 -116.5 40t-105.5 92t-43 85t19.5 94.5t41 123t28.5 77.5q27 72 48 135.5 t21 85.5q0 16 -19.5 35.5t-58.5 48.5q-45 35 -66.5 55.5t-21.5 42.5zM553 1311q35 45 62.5 92t37.5 63q16 106 25 224q69 34 145 34q86 0 145.5 -45t61.5 -120q-131 -182 -303 -349q-12 -2 -35 -2q-53 0 -91 26t-48 77z" />
<glyph unicode="&#xfb;" horiz-adv-x="1392" d="M53 915q0 43 40 100.5t94.5 98.5t93.5 41q43 0 99 -39t98 -89t42 -77q0 -127 -43 -305t-110 -354q135 113 241.5 250t149.5 245q4 133 31.5 223.5t64.5 90.5q53 0 117.5 -38t109.5 -88t45 -79q-2 -43 -38.5 -161t-102.5 -302q-39 -115 -45 -131q59 27 107.5 56.5 t101.5 74.5q90 -31 134 -85t44 -124q0 -49 -69.5 -101t-166 -87t-163.5 -35q-43 0 -102.5 36t-105.5 82t-46 68q0 23 15.5 55.5t34.5 70.5t30 55l-52 28q-113 -207 -193.5 -301t-182.5 -94q-54 0 -116.5 40t-105.5 92t-43 85t19.5 94.5t41 123t28.5 77.5q27 72 48 135.5 t21 85.5q0 16 -19.5 35.5t-58.5 48.5q-45 35 -66.5 55.5t-21.5 42.5zM193 1376l428 342q18 2 55 2q66 0 126 -15t101 -46l260 -338q-37 -109 -157 -109q-37 0 -72 9l-174 319q-76 -78 -137.5 -147.5t-149.5 -178.5q-49 -8 -70 -8q-90 0 -150 47t-60 123z" />
<glyph unicode="&#xfc;" horiz-adv-x="1392" d="M53 915q0 43 40 100.5t94.5 98.5t93.5 41q43 0 99 -39t98 -89t42 -77q0 -127 -43 -305t-110 -354q135 113 241.5 250t149.5 245q4 133 31.5 223.5t64.5 90.5q53 0 117.5 -38t109.5 -88t45 -79q-2 -43 -38.5 -161t-102.5 -302q-39 -115 -45 -131q59 27 107.5 56.5 t101.5 74.5q90 -31 134 -85t44 -124q0 -49 -69.5 -101t-166 -87t-163.5 -35q-43 0 -102.5 36t-105.5 82t-46 68q0 23 15.5 55.5t34.5 70.5t30 55l-52 28q-113 -207 -193.5 -301t-182.5 -94q-54 0 -116.5 40t-105.5 92t-43 85t19.5 94.5t41 123t28.5 77.5q27 72 48 135.5 t21 85.5q0 16 -19.5 35.5t-58.5 48.5q-45 35 -66.5 55.5t-21.5 42.5zM244 1391q0 53 27.5 106t68.5 76q27 10 61 10q70 0 141.5 -31.5t88.5 -78.5q4 -16 4 -29q0 -43 -27.5 -98.5t-68.5 -93.5t-80 -38q-37 0 -89.5 30t-89 72t-36.5 75zM735 1391q0 53 28 106t68 76 q27 10 62 10q70 0 141.5 -31.5t87.5 -78.5q4 -16 4 -29q0 -43 -27.5 -98.5t-68.5 -93.5t-80 -38q-37 0 -89 30t-89 72t-37 75z" />
<glyph unicode="&#xfd;" horiz-adv-x="1165" d="M53 915q0 43 40 100.5t94.5 98.5t93.5 41q43 0 99 -39t98 -89t42 -77q0 -115 -31.5 -273.5t-91.5 -324.5q166 86 332 221q27 262 51.5 394.5t69.5 132.5q31 0 93.5 -42t112.5 -94.5t50 -80.5q0 -43 -63.5 -390.5t-133 -668t-100.5 -369.5q-45 -74 -147.5 -129t-198.5 -55 q-82 0 -175 55.5t-155.5 136t-62.5 148.5q0 90 204.5 263t532.5 398l-37 56q-127 -103 -264 -182.5t-211 -79.5q-31 0 -81 33.5t-88 80.5t-38 86q0 37 17.5 96.5t56.5 172.5q57 160 57 198q0 16 -19.5 35.5t-58.5 48.5q-45 35 -66.5 55.5t-21.5 42.5zM377 -399q0 -39 41 -72 t102 -43q68 96 114 207.5t103 300.5q-360 -282 -360 -393zM539 1311q35 45 62.5 92t37.5 63q16 106 25 224q69 34 145 34q86 0 145.5 -45t61.5 -120q-131 -182 -303 -349q-12 -2 -35 -2q-53 0 -91 26t-48 77z" />
<glyph unicode="&#xfe;" horiz-adv-x="1144" d="M-158 -342q0 35 28 144.5t89 328.5q102 367 141 526q57 236 98.5 481.5t43.5 346.5q2 43 29.5 72.5t66.5 29.5q55 0 123.5 -42t117 -98t48.5 -95q-2 -98 -92 -332l161 65q113 -2 203 -43t142.5 -112.5t52.5 -161.5q0 -156 -92.5 -337t-247 -306t-328.5 -125 q-88 0 -174 59q-29 -115 -55 -340q-18 -143 -32.5 -202.5t-47.5 -59.5q-53 0 -118 35t-111 83t-46 83zM371 397q0 -63 13 -101t42 -38q74 0 150.5 86t127 205t50.5 205q0 23 -37 47t-87 41.5t-89 17.5q-23 0 -37 -8q-33 -18 -63.5 -95t-50 -177.5t-19.5 -182.5z" />
<glyph unicode="&#xff;" horiz-adv-x="1165" d="M53 915q0 43 40 100.5t94.5 98.5t93.5 41q43 0 99 -39t98 -89t42 -77q0 -115 -31.5 -273.5t-91.5 -324.5q166 86 332 221q27 262 51.5 394.5t69.5 132.5q31 0 93.5 -42t112.5 -94.5t50 -80.5q0 -43 -63.5 -390.5t-133 -668t-100.5 -369.5q-45 -74 -147.5 -129t-198.5 -55 q-82 0 -175 55.5t-155.5 136t-62.5 148.5q0 90 204.5 263t532.5 398l-37 56q-127 -103 -264 -182.5t-211 -79.5q-31 0 -81 33.5t-88 80.5t-38 86q0 37 17.5 96.5t56.5 172.5q57 160 57 198q0 16 -19.5 35.5t-58.5 48.5q-45 35 -66.5 55.5t-21.5 42.5zM229 1391q0 53 28 106 t69 76q27 10 61 10q70 0 141.5 -31.5t87.5 -78.5q4 -16 5 -29q0 -43 -28 -98.5t-69 -93.5t-80 -38q-36 0 -88.5 30t-89.5 72t-37 75zM377 -399q0 -39 41 -72t102 -43q68 96 114 207.5t103 300.5q-360 -282 -360 -393zM721 1391q0 53 27.5 106t68.5 76q27 10 62 10 q70 0 141.5 -31.5t87.5 -78.5q4 -16 4 -29q0 -43 -27.5 -98.5t-68.5 -93.5t-80 -38q-37 0 -89 30t-89 72t-37 75z" />
<glyph unicode="&#x152;" horiz-adv-x="1703" d="M31 391q0 117 69.5 402.5t128.5 420.5q68 20 127 21q41 0 66 -8q-4 76 37 139.5t116 87.5q92 -8 158 -25.5t129 -48.5q463 16 760 54q39 -23 58.5 -63t19.5 -87q0 -41 -16.5 -82t-43.5 -67q-264 -4 -440 -21q-35 -125 -65 -278q205 16 346 49q41 -25 62.5 -65t21.5 -87 q0 -43 -17.5 -81t-48.5 -60q-43 -4 -85 -6t-79 -4l-262 -19l-57 -284q135 16 241.5 37.5t212.5 58.5q57 -27 89 -75t32 -105q0 -82 -63 -146q-127 -25 -285 -37t-293 -12q-37 0 -102.5 42t-99.5 87q-61 -66 -137 -102.5t-152 -36.5q-82 0 -183.5 68.5t-173 163.5t-71.5 169z M365 270q196 72 329 276t189 447q-57 41 -148.5 67.5t-195.5 29.5q4 -20 8 -62q-188 -352 -182 -758z" />
<glyph unicode="&#x153;" horiz-adv-x="1665" d="M25 362q0 125 30.5 257.5t94.5 257.5q59 33 118 32q27 0 49 -6q-8 25 -8 58q0 66 46 119t128 77q109 -12 204 -56t167 -112q145 166 322 166q113 0 203.5 -49t142 -123t51.5 -143q0 -86 -78 -169t-217 -145.5t-317 -89.5q-2 -25 -3 -74q0 -61 5 -92q102 10 202.5 55.5 t218.5 127.5q80 -25 121 -78t41 -127q0 -61 -74.5 -119.5t-185 -93.5t-209.5 -35q-76 0 -162 41t-157 113q-150 -154 -342 -154q-82 0 -174 60.5t-154.5 147.5t-62.5 154zM334 344q0 -61 8 -111q172 60 270.5 200t118.5 329q-92 66 -250 65q-39 0 -59 -2q23 -41 22 -92 q-53 -84 -81.5 -185.5t-28.5 -203.5zM993 590q123 45 207 114.5t84 118.5q0 57 -80 78q-156 -115 -211 -301v-10z" />
<glyph unicode="&#x178;" horiz-adv-x="1173" d="M119 1192q0 35 46 82t110.5 81t115.5 34q39 0 61.5 -69t57.5 -239q33 -178 65 -299q195 332 328 629q68 18 121 19q106 0 164.5 -63.5t62.5 -172.5l-129 -166q-20 -27 -157.5 -203t-288.5 -352l-23 -186q-16 -158 -31.5 -222.5t-48.5 -64.5q-47 0 -111.5 34t-112.5 81 t-48 78q-2 37 13.5 105.5t54.5 227.5l14 56q-14 33 -109 225q-78 154 -116.5 245t-38.5 140zM240 1677q0 53 27.5 106.5t68.5 76.5q27 10 61 10q70 0 141.5 -32t88.5 -79q4 -16 4 -28q0 -43 -28 -98.5t-68.5 -93.5t-79.5 -38q-37 0 -89.5 30t-89 72t-36.5 74zM731 1677 q0 53 27.5 106.5t68.5 76.5q27 10 62 10q70 0 141.5 -32t87.5 -79q4 -16 4 -28q0 -43 -27.5 -98.5t-68.5 -93.5t-80 -38q-37 0 -89 30t-89 72t-37 74z" />
<glyph unicode="&#x2c6;" horiz-adv-x="1171" d="M186 1376l428 342q18 2 56 2q66 0 126 -15t101 -46l260 -338q-37 -109 -158 -109q-37 0 -71 9l-174 319q-76 -78 -137.5 -147.5t-149.5 -178.5q-49 -8 -70 -8q-90 0 -150.5 47t-60.5 123z" />
<glyph unicode="&#x2dc;" horiz-adv-x="1110" d="M168 1362q72 86 183.5 177t178.5 91q84 0 177.5 -51t177.5 -127h12l133 164q10 2 31 2q66 0 111 -37t45 -96q-61 -96 -171 -183.5t-190 -87.5q-174 0 -336 166l-16 4l-152 -170q-8 -2 -24 -2q-68 0 -114 41t-46 109z" />
<glyph unicode="&#x2000;" horiz-adv-x="1078" />
<glyph unicode="&#x2001;" horiz-adv-x="2157" />
<glyph unicode="&#x2002;" horiz-adv-x="1078" />
<glyph unicode="&#x2003;" horiz-adv-x="2157" />
<glyph unicode="&#x2004;" horiz-adv-x="719" />
<glyph unicode="&#x2005;" horiz-adv-x="539" />
<glyph unicode="&#x2006;" horiz-adv-x="359" />
<glyph unicode="&#x2007;" horiz-adv-x="359" />
<glyph unicode="&#x2008;" horiz-adv-x="269" />
<glyph unicode="&#x2009;" horiz-adv-x="431" />
<glyph unicode="&#x200a;" horiz-adv-x="119" />
<glyph unicode="&#x2010;" horiz-adv-x="950" d="M76 678q0 82 61 137q123 0 246 6t244 17q35 2 157 10q39 -23 58.5 -60.5t19.5 -82.5q0 -41 -16.5 -79t-42.5 -65q-250 -4 -639 -31q-41 21 -64.5 61t-23.5 87z" />
<glyph unicode="&#x2011;" horiz-adv-x="950" d="M76 678q0 82 61 137q123 0 246 6t244 17q35 2 157 10q39 -23 58.5 -60.5t19.5 -82.5q0 -41 -16.5 -79t-42.5 -65q-250 -4 -639 -31q-41 21 -64.5 61t-23.5 87z" />
<glyph unicode="&#x2012;" horiz-adv-x="950" d="M76 678q0 82 61 137q123 0 246 6t244 17q35 2 157 10q39 -23 58.5 -60.5t19.5 -82.5q0 -41 -16.5 -79t-42.5 -65q-250 -4 -639 -31q-41 21 -64.5 61t-23.5 87z" />
<glyph unicode="&#x2013;" horiz-adv-x="1236" d="M76 682q0 82 61 137q461 6 938 55q39 -23 58.5 -60.5t19.5 -82.5q0 -41 -16.5 -79t-42.5 -64l-555 -31l-375 -22q-41 20 -64.5 60t-23.5 87z" />
<glyph unicode="&#x2014;" horiz-adv-x="1447" d="M76 682q0 82 61 137q162 0 546 23.5t605 44.5q39 -23 58.5 -61t19.5 -83q0 -41 -16.5 -78.5t-42.5 -64.5q-238 -12 -565.5 -30.5t-577.5 -34.5q-41 20 -64.5 60t-23.5 87z" />
<glyph unicode="&#x2018;" horiz-adv-x="548" d="M139 1040q0 109 64.5 234t175.5 199q106 6 110 -111q-100 -76 -184 -246l33 -22q31 18 53.5 26t50.5 8q35 0 72 -36.5t61.5 -87t24.5 -86.5q0 -35 -41 -74t-103.5 -65.5t-119.5 -26.5q-86 0 -141.5 88t-55.5 200z" />
<glyph unicode="&#x2019;" horiz-adv-x="563" d="M80 1321q0 35 41 70.5t102.5 59.5t118.5 24q84 0 138.5 -80t54.5 -197q0 -70 -32 -153.5t-93.5 -160.5t-143.5 -126q-111 2 -106 116q57 39 109.5 101.5t86.5 130.5l-22 29q-48 -31 -101 -31q-39 0 -73.5 39t-57 91t-22.5 87z" />
<glyph unicode="&#x201a;" horiz-adv-x="686" d="M39 221q0 35 41 71t102.5 59.5t118.5 23.5q84 0 138.5 -80t54.5 -195q0 -109 -62.5 -212t-187.5 -167q-111 2 -107 117q94 66 182 178l-18 23q-55 -35 -108 -35q-39 0 -74 39t-57.5 91t-22.5 87z" />
<glyph unicode="&#x201c;" horiz-adv-x="1083" d="M139 1040q0 109 64.5 234t175.5 199q106 6 110 -111q-100 -76 -184 -246l33 -22q31 18 53.5 26t50.5 8q35 0 72 -36.5t61.5 -87t24.5 -86.5q0 -35 -41 -74t-103.5 -65.5t-119.5 -26.5q-86 0 -141.5 88t-55.5 200zM698 1040q0 109 64.5 234t175.5 199q106 6 111 -111 q-100 -76 -185 -246l33 -22q31 18 53.5 26t50.5 8q35 0 72 -36.5t61.5 -87t24.5 -86.5q0 -35 -41 -74t-103.5 -65.5t-119.5 -26.5q-86 0 -141.5 88t-55.5 200z" />
<glyph unicode="&#x201d;" horiz-adv-x="1095" d="M80 1321q0 35 41 70.5t102.5 59.5t118.5 24q84 0 138.5 -80t54.5 -197q0 -70 -32 -153.5t-93.5 -160.5t-143.5 -126q-111 2 -106 116q57 39 109.5 101.5t86.5 130.5l-22 29q-48 -31 -101 -31q-39 0 -73.5 39t-57 91t-22.5 87zM633 1321q0 35 41 70.5t102.5 59.5t118.5 24 q84 0 138 -80t54 -197q0 -70 -31.5 -153.5t-93 -160.5t-143.5 -126q-111 2 -106 116q57 39 109 101.5t87 130.5l-22 29q-48 -31 -101 -31q-39 0 -73.5 39t-57 91t-22.5 87z" />
<glyph unicode="&#x201e;" horiz-adv-x="1320" d="M39 221q0 35 41 71t102.5 59.5t118.5 23.5q84 0 138.5 -80t54.5 -195q0 -109 -62.5 -212t-187.5 -167q-111 2 -107 117q94 66 182 178l-18 23q-55 -35 -108 -35q-39 0 -74 39t-57.5 91t-22.5 87zM674 221q0 35 41 71t102.5 59.5t118.5 23.5q84 0 138 -80t54 -195 q0 -109 -62 -212t-187 -167q-111 2 -107 117q94 66 182 178l-18 23q-56 -35 -109 -35q-39 0 -73.5 39t-57 91t-22.5 87z" />
<glyph unicode="&#x2022;" horiz-adv-x="729" d="M129 762q0 41 57.5 88t138.5 80t142 33q43 0 83 -44.5t66.5 -103.5t26.5 -102q0 -45 -57.5 -97.5t-135 -88t-128.5 -35.5q-41 0 -86.5 46t-76 110.5t-30.5 113.5z" />
<glyph unicode="&#x2026;" horiz-adv-x="1751" d="M39 223q0 35 48 74t115.5 65.5t121.5 26.5q35 0 69.5 -36t56 -86t21.5 -85q0 -37 -48 -80t-112.5 -72.5t-109.5 -29.5q-35 0 -73 38t-63.5 91t-25.5 94zM592 223q0 35 48 74t115.5 65.5t121.5 26.5q35 0 69.5 -36t56 -86t21.5 -85q0 -37 -48 -80t-112.5 -72.5 t-109.5 -29.5q-35 0 -73 38t-63.5 91t-25.5 94zM1145 223q0 35 48 74t115.5 65.5t121.5 26.5q35 0 69.5 -36t56 -86t21.5 -85q0 -37 -48 -80t-112.5 -72.5t-109.5 -29.5q-35 0 -73 38t-63.5 91t-25.5 94z" />
<glyph unicode="&#x202f;" horiz-adv-x="431" />
<glyph unicode="&#x2039;" horiz-adv-x="835" d="M94 670q0 76 41 129l520 393q76 -12 115 -60.5t39 -113.5q0 -63 -33 -117l-438 -239l371 -224q4 -18 4 -51q0 -90 -61.5 -147.5t-162.5 -67.5l-391 459q-4 25 -4 39z" />
<glyph unicode="&#x203a;" horiz-adv-x="876" d="M45 367q0 31 10 67l502 268l-385 226q-8 31 -8 63q0 82 53 137.5t152 63.5l434 -404q10 -20 10 -55q0 -59 -29 -112l-530 -439q-98 2 -153.5 53.5t-55.5 131.5z" />
<glyph unicode="&#x205f;" horiz-adv-x="539" />
<glyph unicode="&#x20ac;" horiz-adv-x="1185" d="M-33 506q0 70 56 125l124 6l9 86l-64 -4q-45 18 -69.5 51t-24.5 74q0 61 57 119l162 12q68 217 202 348t329 131q115 0 218 -40t166.5 -107.5t63.5 -143.5q2 -82 -55.5 -127t-139.5 -45q-61 0 -114 25q-23 86 -53.5 124t-79.5 38q-60 0 -117 -51.5t-88 -127.5l221 27 q41 -20 62.5 -53t21.5 -72q0 -63 -55 -123l-340 -24l-10 -84l329 39q41 -20 62.5 -54t21.5 -75q0 -66 -55 -125l-381 -43l29 -113q137 10 243.5 43t219.5 109q84 -18 125.5 -70.5t41.5 -118.5q0 -74 -45 -131q-43 -57 -205.5 -99t-326.5 -42q-66 0 -154 58t-154.5 148.5 t-72.5 178.5l-68 -6q-43 18 -67.5 55t-24.5 82z" />
<glyph unicode="&#x2122;" horiz-adv-x="1146" d="M201 1554q0 31 26 58q264 4 418 18q33 -18 33 -57q0 -16 -7 -31.5t-22 -23.5q-84 0 -137 -2l-37 -191l-16 -102q-8 -70 -17.5 -100.5t-27.5 -30.5q-33 0 -75 27.5t-42 45.5q0 2 18 84q45 182 54 264l-131 -14q-18 8 -27.5 22.5t-9.5 32.5zM662 1165q0 10 18 92 q37 172 31 144q8 39 10 51q14 70 24.5 113t17.5 54t19 11q31 0 72 -25.5t51 -48.5q12 -29 31 -96q23 -76 33 -100q37 51 96 156q33 57 53.5 85.5t30.5 28.5q29 0 72 -27.5t43 -48.5q0 -10 -31 -163l-14 -66l-17 -104q-10 -72 -18 -100.5t-29 -28.5q-31 0 -66.5 26.5 t-35.5 44.5q-2 14 8 59.5t24 96.5l41 111l-8 4q-20 -47 -58 -109.5t-54 -79.5q-8 -8 -28 -13t-38 -5q-23 0 -31 8q-14 12 -32 100l-13.5 54t-19.5 65l-10 -129l-15 -94q-8 -74 -17 -106.5t-30 -32.5q-33 0 -71.5 27.5t-38.5 45.5z" />
<glyph unicode="&#x25fc;" horiz-adv-x="1157" d="M0 0v1157h1157v-1157h-1157z" />
<glyph unicode="&#xfb01;" horiz-adv-x="1523" d="M25 743q0 39 15 75t46 61q49 -2 154 2l67 2q-33 250 -33 381q0 92 15 141q12 37 64.5 80t121 72.5t129.5 29.5q125 0 257 -45t218 -112.5t86 -131.5q-2 -80 -61.5 -126t-159.5 -39q-113 86 -179.5 132t-143.5 76q-39 -88 -55.5 -188t-20.5 -250q76 6 153.5 21.5 t143.5 29.5q61 14 119.5 24.5t103.5 10.5q88 0 134 -43t46 -123q0 -63 -24.5 -144t-81.5 -239l-47 -131q49 23 85.5 47.5t102.5 75.5q92 -31 135 -87t43 -122q0 -53 -68.5 -104t-167 -85t-173.5 -34q-53 0 -120 36t-115 84t-48 81q0 35 24.5 102.5t69.5 175.5q66 152 90 228 q-94 -9 -198.5 -21t-151.5 -18l-86 -11q-12 -94 -16 -153q-27 -254 -50.5 -379t-64.5 -125q-55 0 -122.5 30.5t-114 73.5t-46.5 76q0 37 26 112t75 200l53 141l-154 -25q-35 18 -55 55t-20 80z" />
<glyph unicode="&#xfb02;" horiz-adv-x="1544" d="M25 743q0 39 15 75t46 61q88 -2 221 4q-33 250 -33 381q0 92 15 141q12 37 64.5 80t121 72.5t129.5 29.5q147 0 307 -68.5t267.5 -169t107.5 -188.5q0 -53 -14.5 -120.5t-46.5 -192.5q-80 -307 -113 -537q66 33 102.5 56.5t85.5 64.5q90 -31 134.5 -85t44.5 -124 q0 -49 -70 -101t-166 -87t-164 -35q-59 0 -132 36t-124 84t-51 83q0 33 19.5 112.5t48.5 178.5q57 213 91 351t60 296q-57 63 -167.5 121.5t-209.5 78.5q-33 -127 -50 -219t-19 -219q109 14 196 35q33 -25 51.5 -61.5t18.5 -77.5q0 -68 -47 -125l-98 -6l-152 -11 q-12 -94 -16 -153q-27 -254 -50.5 -379t-64.5 -125q-55 0 -122.5 30.5t-114 73.5t-46.5 76q0 37 26 112t75 200l53 141l-154 -25q-35 18 -55 55t-20 80z" />
<glyph unicode="&#xfb03;" horiz-adv-x="2299" d="M25 743q0 39 15 75t46 61q49 -2 154 2l67 2q-33 250 -33 381q0 92 15 141q12 37 64.5 80t121 72.5t129.5 29.5q90 0 178 -35.5t143.5 -91t55.5 -110.5q0 -90 -56.5 -134.5t-158.5 -44.5q-27 0 -41 3q-25 63 -49.5 101t-61.5 66q-68 -240 -71 -458q176 2 491 20l45 2 q-16 137 -16 295q0 154 18 217q12 37 59.5 77t113 66.5t126.5 26.5q125 0 257 -45t218.5 -112.5t86.5 -131.5q-2 -80 -61.5 -126t-160.5 -39q-113 86 -179 132t-144 76q-39 -88 -55.5 -188t-20.5 -250q76 6 153.5 21.5t143.5 29.5q61 14 119.5 24.5t103.5 10.5q88 0 134 -43 t46 -123q0 -63 -24.5 -144t-81.5 -239l-47 -131q49 23 86 47.5t102 75.5q92 -31 135 -87t43 -122q0 -53 -68.5 -104t-166.5 -85t-174 -34q-53 0 -120 36t-115 84t-48 81q0 35 24.5 102.5t69.5 175.5q66 152 90 228q-94 -8 -198.5 -20.5t-151.5 -18.5l-86 -11 q-12 -94 -16 -153q-27 -254 -50.5 -379t-64.5 -125q-55 0 -122.5 30.5t-113.5 73.5t-46 76q0 31 18 91.5t59 172.5q57 154 76 218q-86 -6 -285 -15q-84 -2 -233 -10q-6 -39 -9 -76t-7 -69q-25 -242 -48.5 -367t-64.5 -125q-55 0 -122.5 30.5t-114 73.5t-46.5 76 q0 37 25 109.5t72 193.5q10 27 24.5 63t28.5 79l-150 -17q-35 18 -55 55t-20 80z" />
<glyph unicode="&#xfb04;" horiz-adv-x="2320" d="M25 743q0 39 15 75t46 61q49 -2 154 2l67 2q-33 250 -33 381q0 92 15 141q12 37 64.5 80t121 72.5t129.5 29.5q90 0 178 -35.5t143.5 -91t55.5 -110.5q0 -90 -56.5 -134.5t-158.5 -44.5q-27 0 -41 3q-25 63 -49.5 101t-61.5 66q-68 -240 -71 -458q176 2 491 20l45 2 q-18 156 -18 291q0 147 20 221q12 37 59.5 77t113 66.5t126.5 26.5q147 0 307 -68.5t267.5 -169t107.5 -188.5q0 -53 -14 -120.5t-47 -192.5q-80 -307 -113 -537q66 33 103 56.5t86 64.5q90 -31 134 -85t44 -124q0 -49 -69.5 -101t-166 -87t-164.5 -35q-59 0 -131.5 36 t-124 84t-51.5 83q0 33 19.5 112.5t48.5 178.5q57 213 91 351t60 296q-57 63 -167.5 121.5t-208.5 78.5q-33 -127 -50.5 -219t-19.5 -219q109 14 197 35q33 -25 51 -61.5t18 -77.5q0 -68 -47 -125l-98 -6l-152 -11q-12 -94 -16 -153q-27 -254 -50.5 -379t-64.5 -125 q-55 0 -122.5 30.5t-113.5 73.5t-46 76q0 27 21.5 93.5t37.5 113.5t22 66q47 127 72 209q-86 -6 -285 -15q-84 -2 -233 -10q-6 -39 -9 -76t-7 -69q-25 -242 -48.5 -367t-64.5 -125q-55 0 -122.5 30.5t-114 73.5t-46.5 76q0 37 25 109.5t72 193.5q10 27 24.5 63t28.5 79 l-150 -17q-35 18 -55 55t-20 80z" />
</font>
</defs>
</svg>
